<?xml version="1.0" standalone="no"?>
<!DOCTYPE svg PUBLIC "-//W3C//DTD SVG 1.1//EN" "http://www.w3.org/Graphics/SVG/1.1/DTD/svg11.dtd" >
<svg xmlns="http://www.w3.org/2000/svg" xmlns:xlink="http://www.w3.org/1999/xlink" version="1.1">
<metadata>
Created by FontForge 20160407 at Mon Sep 12 03:51:43 2016
 By Jimmy Warting
Copyright \(c\) 2002 by \251 2009 Designed by Svetoslav Simov \251 Fontfabric, Inc. All rights reserved.
</metadata>
<defs>
<font id="UniSansHeavyCAPS" horiz-adv-x="588" >
  <font-face 
    font-family="Uni Sans Heavy CAPS"
    font-weight="900"
    font-variant="small-caps"
    font-stretch="normal"
    units-per-em="1000"
    panose-1="0 0 5 0 0 0 0 0 0 0"
    ascent="756"
    descent="-244"
    x-height="708"
    cap-height="708"
    bbox="-57 -254 1085 997"
    underline-thickness="50"
    underline-position="-100"
    unicode-range="U+0020-FB02"
  />
<missing-glyph horiz-adv-x="601" 
d="M540 700v-700h-529v700h529zM206 562l70 -104c25 37 40 62 69 104h-139zM229 349l-8 14l-80 121v-262zM335 363l-8 -14l88 -127v262zM205 139h139c-12 16 -32 47 -69 102z" />
    <glyph glyph-name="fi" unicode="fi" horiz-adv-x="833" 
d="M237 538v-127h273v-167h-273v-244h-181v708h493v-170h-312zM777 708v-708h-179v708h179z" />
    <glyph glyph-name="fl" unicode="fl" horiz-adv-x="1100" 
d="M237 538v-127h273v-167h-273v-244h-181v708h493v-170h-312zM617 0v708h180v-531h288v-177h-468z" />
    <glyph glyph-name=".notdef" horiz-adv-x="601" 
d="M540 700v-700h-529v700h529zM206 562l70 -104c25 37 40 62 69 104h-139zM229 349l-8 14l-80 121v-262zM335 363l-8 -14l88 -127v262zM205 139h139c-12 16 -32 47 -69 102z" />
    <glyph glyph-name="A" unicode="A" horiz-adv-x="648" 
d="M404 708l253 -708h-192l-46 142h-189l-44 -142h-192l247 708h163zM270 301h106l-49 207h-5z" />
    <glyph glyph-name="Aacute" unicode="&#xc1;" horiz-adv-x="648" 
d="M507 922l-131 -166h-155l100 166h186zM404 708l253 -708h-192l-46 142h-189l-44 -142h-192l247 708h163zM270 301h106l-49 207h-5z" />
    <glyph glyph-name="Abreve" unicode="&#x102;" horiz-adv-x="648" 
d="M362 922h135c0 -232 -350 -232 -350 0h137c0 -51 78 -51 78 0zM404 708l253 -708h-192l-46 142h-189l-44 -142h-192l247 708h163zM270 301h106l-49 207h-5z" />
    <glyph glyph-name="Acircumflex" unicode="&#xc2;" horiz-adv-x="648" 
d="M382 924l150 -168h-162l-46 52l-44 -52h-169l154 168h117zM404 708l253 -708h-192l-46 142h-189l-44 -142h-192l247 708h163zM270 301h106l-49 207h-5z" />
    <glyph glyph-name="Adieresis" unicode="&#xc4;" horiz-adv-x="648" 
d="M119 834c0 48 37 85 84 85s84 -37 84 -85c0 -46 -37 -83 -84 -83s-84 37 -84 83zM360 834c0 48 35 85 84 85c48 0 85 -37 85 -85c0 -46 -37 -83 -85 -83c-49 0 -84 37 -84 83zM404 708l253 -708h-192l-46 142h-189l-44 -142h-192l247 708h163zM270 301h106l-49 207h-5z
" />
    <glyph glyph-name="Agrave" unicode="&#xc0;" horiz-adv-x="648" 
d="M426 756h-155l-131 166h186zM404 708l253 -708h-192l-46 142h-189l-44 -142h-192l247 708h163zM270 301h106l-49 207h-5z" />
    <glyph glyph-name="Amacron" unicode="&#x100;" horiz-adv-x="648" 
d="M174 758v134h297v-134h-297zM404 708l253 -708h-192l-46 142h-189l-44 -142h-192l247 708h163zM270 301h106l-49 207h-5z" />
    <glyph glyph-name="Aogonek" unicode="&#x104;" horiz-adv-x="648" 
d="M675 -97l28 -107c-34 -28 -80 -40 -115 -40c-136 0 -175 116 -69 244h-54l-46 142h-189l-44 -142h-192l247 708h163l253 -708c-65 -59 -63 -112 -22 -111c11 0 24 4 40 14zM270 301h106l-49 207h-5z" />
    <glyph glyph-name="Aring" unicode="&#xc5;" horiz-adv-x="648" 
d="M465 0l-46 142h-189l-44 -142h-192l240 688c-25 23 -40 56 -40 93c0 71 58 130 131 130s128 -65 128 -131c0 -36 -16 -70 -41 -93l245 -687h-192zM325 819c-24 0 -38 -19 -38 -40c0 -15 14 -35 38 -35c20 0 36 13 36 35c0 21 -16 40 -36 40zM327 508h-5l-52 -207h106z
" />
    <glyph glyph-name="Atilde" unicode="&#xc3;" horiz-adv-x="648" 
d="M219 749l-87 49c15 80 59 120 127 118c59 -1 115 -79 147 -4l91 -52c-19 -74 -55 -114 -104 -113c-80 0 -134 80 -174 2zM404 708l253 -708h-192l-46 142h-189l-44 -142h-192l247 708h163zM270 301h106l-49 207h-5z" />
    <glyph glyph-name="AE" unicode="&#xc6;" horiz-adv-x="834" 
d="M794 532h-245v-93h220v-173h-220v-95h245v-171h-415v192h-108l-69 -192h-215l302 708h505v-176zM316 345h72l4 180h-8z" />
    <glyph glyph-name="B" unicode="B" horiz-adv-x="624" 
d="M570 492c-1 -32 -22 -89 -73 -115c97 -49 109 -140 100 -194c-18 -114 -95 -183 -252 -183h-289v708h284c135 0 234 -81 230 -216zM236 431h104c87 0 90 126 0 126h-104v-126zM236 157h104c108 0 106 145 0 145h-104v-145z" />
    <glyph glyph-name="C" unicode="C" horiz-adv-x="582" 
d="M417 221l156 -72c-59 -115 -166 -159 -255 -159c-139 0 -279 81 -279 242v244c0 160 140 242 282 242c87 0 192 -37 249 -163l-146 -59c-48 88 -206 68 -206 -20v-244c0 -85 160 -109 199 -11z" />
    <glyph glyph-name="Cacute" unicode="&#x106;" horiz-adv-x="582" 
d="M504 922l-131 -166h-155l100 166h186zM417 221l156 -72c-59 -115 -166 -159 -255 -159c-139 0 -279 81 -279 242v244c0 160 140 242 282 242c87 0 192 -37 249 -163l-146 -59c-48 88 -206 68 -206 -20v-244c0 -85 160 -109 199 -11z" />
    <glyph glyph-name="Ccaron" unicode="&#x10c;" horiz-adv-x="582" 
d="M112 924h168l41 -52l46 52h167l-150 -168h-122zM417 221l156 -72c-59 -115 -166 -159 -255 -159c-139 0 -279 81 -279 242v244c0 160 140 242 282 242c87 0 192 -37 249 -163l-146 -59c-48 88 -206 68 -206 -20v-244c0 -85 160 -109 199 -11z" />
    <glyph glyph-name="Ccedilla" unicode="&#xc7;" horiz-adv-x="582" 
d="M417 221l156 -72c-44 -87 -116 -133 -187 -151l-13 -29c134 -35 80 -223 -65 -223c-44 0 -96 10 -146 51l32 86c44 -30 101 -46 111 -9c7 23 -24 48 -76 52l31 69c-118 19 -221 99 -221 237v244c0 160 140 242 282 242c87 0 192 -37 249 -163l-146 -59
c-48 88 -206 68 -206 -20v-244c0 -85 160 -109 199 -11z" />
    <glyph glyph-name="Cdotaccent" unicode="&#x10a;" horiz-adv-x="582" 
d="M222 851c0 54 43 97 99 97s97 -43 97 -97c0 -55 -41 -98 -97 -98s-99 43 -99 98zM417 221l156 -72c-59 -115 -166 -159 -255 -159c-139 0 -279 81 -279 242v244c0 160 140 242 282 242c87 0 192 -37 249 -163l-146 -59c-48 88 -206 68 -206 -20v-244
c0 -85 160 -109 199 -11z" />
    <glyph glyph-name="D" unicode="D" horiz-adv-x="636" 
d="M56 708h265c142 0 275 -72 275 -237v-238c0 -163 -133 -234 -275 -233h-265v708zM236 168h91c61 0 89 31 89 77v221c0 46 -29 75 -89 75h-91v-373z" />
    <glyph glyph-name="Eth" unicode="&#xd0;" horiz-adv-x="642" 
d="M62 428v280h286c143 0 254 -69 254 -234v-241c0 -163 -111 -233 -254 -233h-286v285h-48v143h48zM243 176h105c47 0 74 19 74 57v241c0 39 -27 58 -74 58h-105v-104h83v-143h-83v-109z" />
    <glyph glyph-name="Dcaron" unicode="&#x10e;" horiz-adv-x="636" 
d="M80 924h168l41 -52l46 52h167l-150 -168h-122zM56 708h265c142 0 275 -72 275 -237v-238c0 -163 -133 -234 -275 -233h-265v708zM236 168h91c61 0 89 31 89 77v221c0 46 -29 75 -89 75h-91v-373z" />
    <glyph glyph-name="Dcroat" unicode="&#x110;" horiz-adv-x="642" 
d="M62 428v280h286c143 0 254 -69 254 -234v-241c0 -163 -111 -233 -254 -233h-286v285h-48v143h48zM243 176h105c47 0 74 19 74 57v241c0 39 -27 58 -74 58h-105v-104h83v-143h-83v-109z" />
    <glyph glyph-name="E" unicode="E" 
d="M237 540v-110h287v-155h-287v-106h312v-169h-493v708h493v-168h-312z" />
    <glyph glyph-name="Eacute" unicode="&#xc9;" 
d="M492 922l-131 -166h-155l100 166h186zM237 540v-110h287v-155h-287v-106h312v-169h-493v708h493v-168h-312z" />
    <glyph glyph-name="Ecaron" unicode="&#x11a;" 
d="M100 924h168l41 -52l46 52h167l-150 -168h-122zM237 540v-110h287v-155h-287v-106h312v-169h-493v708h493v-168h-312z" />
    <glyph glyph-name="Ecircumflex" unicode="&#xca;" 
d="M367 924l150 -168h-162l-46 52l-44 -52h-169l154 168h117zM237 540v-110h287v-155h-287v-106h312v-169h-493v708h493v-168h-312z" />
    <glyph glyph-name="Edieresis" unicode="&#xcb;" 
d="M104 834c0 48 37 85 84 85s84 -37 84 -85c0 -46 -37 -83 -84 -83s-84 37 -84 83zM345 834c0 48 35 85 84 85c48 0 85 -37 85 -85c0 -46 -37 -83 -85 -83c-49 0 -84 37 -84 83zM237 540v-110h287v-155h-287v-106h312v-169h-493v708h493v-168h-312z" />
    <glyph glyph-name="Edotaccent" unicode="&#x116;" 
d="M210 851c0 54 43 97 99 97s97 -43 97 -97c0 -55 -41 -98 -97 -98s-99 43 -99 98zM237 540v-110h287v-155h-287v-106h312v-169h-493v708h493v-168h-312z" />
    <glyph glyph-name="Egrave" unicode="&#xc8;" 
d="M411 756h-155l-131 166h186zM237 540v-110h287v-155h-287v-106h312v-169h-493v708h493v-168h-312z" />
    <glyph glyph-name="Emacron" unicode="&#x112;" 
d="M159 758v134h297v-134h-297zM237 540v-110h287v-155h-287v-106h312v-169h-493v708h493v-168h-312z" />
    <glyph glyph-name="Eogonek" unicode="&#x118;" 
d="M568 -97l28 -107c-34 -28 -80 -40 -115 -40c-136 0 -175 116 -69 244h-356v708h493v-168h-312v-110h287v-155h-287v-106h312v-169c-64 -61 -62 -112 -21 -111c11 0 24 4 40 14z" />
    <glyph glyph-name="F" unicode="F" horiz-adv-x="576" 
d="M237 538v-127h273v-167h-273v-244h-181v708h493v-170h-312z" />
    <glyph glyph-name="G" unicode="G" horiz-adv-x="624" 
d="M565 567l-150 -69c-39 95 -197 73 -197 -20v-243c0 -111 207 -110 207 0v26h-113v150h285v-176c0 -163 -136 -245 -278 -245c-140 0 -280 82 -280 245v243c0 160 140 240 280 240c92 0 197 -38 246 -151z" />
    <glyph glyph-name="Gbreve" unicode="&#x11e;" horiz-adv-x="624" 
d="M357 922h135c0 -232 -350 -232 -350 0h137c0 -51 78 -51 78 0zM565 567l-150 -69c-39 95 -197 73 -197 -20v-243c0 -111 207 -110 207 0v26h-113v150h285v-176c0 -163 -136 -245 -278 -245c-140 0 -280 82 -280 245v243c0 160 140 240 280 240c92 0 197 -38 246 -151z
" />
    <glyph glyph-name="Gcommaaccent" unicode="&#x122;" horiz-adv-x="624" 
d="M565 567l-150 -69c-39 95 -197 73 -197 -20v-243c0 -111 207 -110 207 0v26h-113v150h285v-176c0 -163 -136 -245 -278 -245c-140 0 -280 82 -280 245v243c0 160 140 240 280 240c92 0 197 -38 246 -151zM428 -46l-75 -204h-163l61 204h177z" />
    <glyph glyph-name="Gdotaccent" unicode="&#x120;" horiz-adv-x="624" 
d="M220 851c0 54 43 97 99 97s97 -43 97 -97c0 -55 -41 -98 -97 -98s-99 43 -99 98zM565 567l-150 -69c-39 95 -197 73 -197 -20v-243c0 -111 207 -110 207 0v26h-113v150h285v-176c0 -163 -136 -245 -278 -245c-140 0 -280 82 -280 245v243c0 160 140 240 280 240
c92 0 197 -38 246 -151z" />
    <glyph glyph-name="H" unicode="H" horiz-adv-x="676" 
d="M236 267v-267h-180v708h180v-268h204v268h180v-708h-180v267h-204z" />
    <glyph glyph-name="Hbar" unicode="&#x126;" horiz-adv-x="697" 
d="M631 518v-518h-180v267h-204v-267h-180v518h-59v104h59v86h180v-86h204v86h180v-86h58v-104h-58zM247 518v-78h204v78h-204z" />
    <glyph glyph-name="I" unicode="I" horiz-adv-x="291" 
d="M235 708v-708h-179v708h179z" />
    <glyph glyph-name="IJ" unicode="&#x132;" horiz-adv-x="878" 
d="M235 708v-708h-179v708h179zM294 208l169 35c10 -57 57 -80 101 -80s86 27 86 68v315h-161v162h338v-477c0 -154 -135 -241 -270 -241c-122 0 -243 68 -263 218z" />
    <glyph glyph-name="Iacute" unicode="&#xcd;" horiz-adv-x="291" 
d="M329 922l-131 -166h-155l100 166h186zM235 708v-708h-179v708h179z" />
    <glyph glyph-name="Icircumflex" unicode="&#xce;" horiz-adv-x="291" 
d="M204 924l140 -168h-162l-36 50l-34 -50h-169l144 168h117zM235 708v-708h-179v708h179z" />
    <glyph glyph-name="Idieresis" unicode="&#xcf;" horiz-adv-x="291" 
d="M-43 834c0 48 37 85 84 85s84 -37 84 -85c0 -46 -37 -83 -84 -83s-84 37 -84 83zM168 834c0 48 35 85 84 85c48 0 85 -37 85 -85c0 -46 -37 -83 -85 -83c-49 0 -84 37 -84 83zM235 708v-708h-179v708h179z" />
    <glyph glyph-name="Idotaccent" unicode="&#x130;" horiz-adv-x="291" 
d="M47 851c0 54 43 97 99 97s97 -43 97 -97c0 -55 -41 -98 -97 -98s-99 43 -99 98zM235 708v-708h-179v708h179z" />
    <glyph glyph-name="Igrave" unicode="&#xcc;" horiz-adv-x="291" 
d="M248 756h-155l-131 166h186zM235 708v-708h-179v708h179z" />
    <glyph glyph-name="Imacron" unicode="&#x12a;" horiz-adv-x="291" 
d="M-4 758v134h297v-134h-297zM235 708v-708h-179v708h179z" />
    <glyph glyph-name="Iogonek" unicode="&#x12e;" horiz-adv-x="291" 
d="M252 -97l28 -107c-34 -28 -80 -40 -115 -40c-136 0 -175 116 -69 244h-40v708h179v-708c-59 -51 -66 -112 -23 -111c11 0 24 4 40 14z" />
    <glyph glyph-name="J" unicode="J" horiz-adv-x="587" 
d="M3 208l169 35c10 -57 57 -80 101 -80s86 27 86 68v315h-161v162h338v-477c0 -154 -135 -241 -270 -241c-122 0 -243 68 -263 218z" />
    <glyph glyph-name="K" unicode="K" horiz-adv-x="640" 
d="M236 446l192 262h223l-280 -342l279 -366h-227l-181 253l-6 -8v-245h-180v708h180v-262z" />
    <glyph glyph-name="Kcommaaccent" unicode="&#x136;" horiz-adv-x="640" 
d="M236 446l192 262h223l-280 -342l279 -366h-227l-181 253l-6 -8v-245h-180v708h180v-262zM437 -50l-75 -204h-163l61 204h177z" />
    <glyph glyph-name="L" unicode="L" horiz-adv-x="539" 
d="M56 0v708h180v-531h288v-177h-468z" />
    <glyph glyph-name="Lacute" unicode="&#x139;" horiz-adv-x="539" 
d="M331 922l-131 -166h-155l100 166h186zM56 0v708h180v-531h288v-177h-468z" />
    <glyph glyph-name="Lcaron" unicode="&#x13d;" horiz-adv-x="549" 
d="M56 0v708h180v-531h288v-177h-468zM544 704l-75 -204h-153l61 204h167z" />
    <glyph glyph-name="Lcommaaccent" unicode="&#x13b;" horiz-adv-x="539" 
d="M56 0v708h180v-531h288v-177h-468zM406 -50l-75 -204h-163l61 204h177z" />
    <glyph glyph-name="Ldot" unicode="&#x13f;" horiz-adv-x="548" 
d="M56 0v708h180v-531h288v-177h-468zM293 380c0 54 40 97 97 97c54 0 94 -43 94 -97c0 -53 -40 -94 -94 -94c-57 0 -97 41 -97 94z" />
    <glyph glyph-name="Lslash" unicode="&#x141;" horiz-adv-x="570" 
d="M542 182v-182h-455v257l-41 -17l-45 113l86 36v319h181v-242l129 53l47 -112l-176 -73v-152h274z" />
    <glyph glyph-name="M" unicode="M" horiz-adv-x="769" 
d="M56 0v708h179l149 -346l150 346h179v-708h-180l1 204l11 143l-6 1l-93 -243h-123l-95 243l-5 -1l12 -143v-204h-179z" />
    <glyph glyph-name="N" unicode="N" horiz-adv-x="676" 
d="M56 0v708h170l171 -302l60 -142l5 1c-1 0 -19 122 -20 122v321h178v-708h-181l-160 279l-62 142l-5 -1l23 -137v-283h-179z" />
    <glyph glyph-name="Nacute" unicode="&#x143;" horiz-adv-x="676" 
d="M523 922l-131 -166h-155l100 166h186zM56 0v708h170l171 -302l60 -142l5 1c-1 0 -19 122 -20 122v321h178v-708h-181l-160 279l-62 142l-5 -1l23 -137v-283h-179z" />
    <glyph glyph-name="Ncaron" unicode="&#x147;" horiz-adv-x="676" 
d="M131 924h168l41 -52l46 52h167l-150 -168h-122zM56 0v708h170l171 -302l60 -142l5 1c-1 0 -19 122 -20 122v321h178v-708h-181l-160 279l-62 142l-5 -1l23 -137v-283h-179z" />
    <glyph glyph-name="Ncommaaccent" unicode="&#x145;" horiz-adv-x="676" 
d="M56 0v708h170l171 -302l60 -142l5 1c-1 0 -19 122 -20 122v321h178v-708h-181l-160 279l-62 142l-5 -1l23 -137v-283h-179zM455 -50l-75 -204h-163l61 204h177z" />
    <glyph glyph-name="Eng" unicode="&#x14a;" horiz-adv-x="676" 
d="M620 708v-713c0 -152 -106 -232 -245 -196v147c50 -12 76 20 76 51v10l-172 272l-62 142l-4 -1l22 -137v-283h-179v708h170l171 -294l60 -142l3 1c-1 0 -17 122 -18 122v313h178z" />
    <glyph glyph-name="Ntilde" unicode="&#xd1;" horiz-adv-x="676" 
d="M238 745l-87 49c15 80 59 120 127 118c59 -1 115 -79 147 -4l91 -52c-19 -74 -55 -114 -104 -113c-80 0 -134 80 -174 2zM56 0v708h170l171 -302l60 -142l5 1c-1 0 -19 122 -20 122v321h178v-708h-181l-160 279l-62 142l-5 -1l23 -137v-283h-179z" />
    <glyph glyph-name="O" unicode="O" horiz-adv-x="665" 
d="M39 233v242c0 163 146 243 293 243s294 -81 294 -243v-242c0 -162 -146 -243 -293 -243s-294 81 -294 243zM218 475v-242c0 -52 58 -77 115 -77s114 26 114 77v242c0 55 -59 80 -117 80c-56 0 -112 -28 -112 -80z" />
    <glyph glyph-name="Oacute" unicode="&#xd3;" horiz-adv-x="665" 
d="M515 924l-131 -166h-155l100 166h186zM39 233v242c0 163 146 243 293 243s294 -81 294 -243v-242c0 -162 -146 -243 -293 -243s-294 81 -294 243zM218 475v-242c0 -52 58 -77 115 -77s114 26 114 77v242c0 55 -59 80 -117 80c-56 0 -112 -28 -112 -80z" />
    <glyph glyph-name="Ocircumflex" unicode="&#xd4;" horiz-adv-x="665" 
d="M390 926l150 -168h-162l-46 52l-44 -52h-169l154 168h117zM39 233v242c0 163 146 243 293 243s294 -81 294 -243v-242c0 -162 -146 -243 -293 -243s-294 81 -294 243zM218 475v-242c0 -52 58 -77 115 -77s114 26 114 77v242c0 55 -59 80 -117 80c-56 0 -112 -28 -112 -80
z" />
    <glyph glyph-name="Odieresis" unicode="&#xd6;" horiz-adv-x="665" 
d="M127 836c0 48 37 85 84 85s84 -37 84 -85c0 -46 -37 -83 -84 -83s-84 37 -84 83zM368 836c0 48 35 85 84 85c48 0 85 -37 85 -85c0 -46 -37 -83 -85 -83c-49 0 -84 37 -84 83zM39 233v242c0 163 146 243 293 243s294 -81 294 -243v-242c0 -162 -146 -243 -293 -243
s-294 81 -294 243zM218 475v-242c0 -52 58 -77 115 -77s114 26 114 77v242c0 55 -59 80 -117 80c-56 0 -112 -28 -112 -80z" />
    <glyph glyph-name="Ograve" unicode="&#xd2;" horiz-adv-x="665" 
d="M434 758h-155l-131 166h186zM39 233v242c0 163 146 243 293 243s294 -81 294 -243v-242c0 -162 -146 -243 -293 -243s-294 81 -294 243zM218 475v-242c0 -52 58 -77 115 -77s114 26 114 77v242c0 55 -59 80 -117 80c-56 0 -112 -28 -112 -80z" />
    <glyph glyph-name="Ohungarumlaut" unicode="&#x150;" horiz-adv-x="665" 
d="M390 916l-111 -158h-141l75 158h177zM622 916l-117 -158h-140l74 158h183zM39 233v242c0 163 146 243 293 243s294 -81 294 -243v-242c0 -162 -146 -243 -293 -243s-294 81 -294 243zM218 475v-242c0 -52 58 -77 115 -77s114 26 114 77v242c0 55 -59 80 -117 80
c-56 0 -112 -28 -112 -80z" />
    <glyph glyph-name="Omacron" unicode="&#x14c;" horiz-adv-x="665" 
d="M182 760v134h297v-134h-297zM39 233v242c0 163 146 243 293 243s294 -81 294 -243v-242c0 -162 -146 -243 -293 -243s-294 81 -294 243zM218 475v-242c0 -52 58 -77 115 -77s114 26 114 77v242c0 55 -59 80 -117 80c-56 0 -112 -28 -112 -80z" />
    <glyph glyph-name="Oslash" unicode="&#xd8;" horiz-adv-x="665" 
d="M574 756l-39 -99c55 -41 91 -101 91 -182v-242c0 -162 -146 -243 -293 -243c-16 0 -32 1 -47 3l-39 -96l-158 56l42 98c-55 40 -92 101 -92 182v242c0 163 146 243 293 243c16 0 33 -1 49 -3l36 93zM447 233v242c0 55 -59 80 -117 80c-56 0 -112 -28 -112 -80v-242
c0 -52 58 -77 115 -77s114 26 114 77z" />
    <glyph glyph-name="Otilde" unicode="&#xd5;" horiz-adv-x="665" 
d="M230 747l-87 49c15 80 59 120 127 118c59 -1 115 -79 147 -4l91 -52c-19 -74 -55 -114 -104 -113c-80 0 -134 80 -174 2zM39 233v242c0 163 146 243 293 243s294 -81 294 -243v-242c0 -162 -146 -243 -293 -243s-294 81 -294 243zM218 475v-242c0 -52 58 -77 115 -77
s114 26 114 77v242c0 55 -59 80 -117 80c-56 0 -112 -28 -112 -80z" />
    <glyph glyph-name="OE" unicode="&#x152;" horiz-adv-x="812" 
d="M535 539v-105h212v-163h-212v-103h238v-168h-391v32c-38 -30 -81 -42 -122 -42c-143 0 -218 92 -218 222v278c0 138 99 228 212 228c42 0 86 -10 128 -35v25h391v-169h-238zM382 171v368c-59 48 -160 24 -160 -50v-261c0 -61 43 -84 86 -84c31 0 61 11 74 27z" />
    <glyph glyph-name="P" unicode="P" horiz-adv-x="618" 
d="M56 0v708h283c173 0 259 -125 259 -250c0 -126 -87 -251 -258 -251h-105v-207h-179zM235 366h104c108 -1 108 176 0 175h-104v-175z" />
    <glyph glyph-name="Thorn" unicode="&#xde;" horiz-adv-x="556" 
d="M237 602h10c190 0 292 -81 292 -240c0 -184 -152 -235 -302 -235v-126h-181v714h181v-113zM237 439v-154c170 -20 170 173 0 154z" />
    <glyph glyph-name="Q" unicode="Q" horiz-adv-x="665" 
d="M39 233v242c0 163 146 243 293 243s294 -81 294 -243v-242c0 -49 -14 -91 -36 -125l55 -56l-99 -89l-58 60c-47 -22 -101 -33 -155 -33c-147 0 -294 81 -294 243zM218 475v-242c0 -65 81 -101 139 -76l-58 60l99 86l49 -50v222c0 109 -229 106 -229 0z" />
    <glyph glyph-name="R" unicode="R" horiz-adv-x="646" 
d="M433 0l-164 225h-32v-225h-181v708h283c146 0 259 -67 263 -233c0 -131 -53 -205 -139 -232l193 -243h-223zM237 379h105c113 0 113 162 0 162h-105v-162z" />
    <glyph glyph-name="Racute" unicode="&#x154;" horiz-adv-x="646" 
d="M490 922l-131 -166h-155l100 166h186zM433 0l-164 225h-32v-225h-181v708h283c146 0 259 -67 263 -233c0 -131 -53 -205 -139 -232l193 -243h-223zM237 379h105c113 0 113 162 0 162h-105v-162z" />
    <glyph glyph-name="Rcaron" unicode="&#x158;" horiz-adv-x="646" 
d="M98 924h168l41 -52l46 52h167l-150 -168h-122zM433 0l-164 225h-32v-225h-181v708h283c146 0 259 -67 263 -233c0 -131 -53 -205 -139 -232l193 -243h-223zM237 379h105c113 0 113 162 0 162h-105v-162z" />
    <glyph glyph-name="Rcommaaccent" unicode="&#x156;" horiz-adv-x="646" 
d="M433 0l-164 225h-32v-225h-181v708h283c146 0 259 -67 263 -233c0 -131 -53 -205 -139 -232l193 -243h-223zM237 379h105c113 0 113 162 0 162h-105v-162zM443 -50l-75 -204h-163l61 204h177z" />
    <glyph glyph-name="S" unicode="S" horiz-adv-x="564" 
d="M22 118l113 106c71 -86 227 -90 232 -14c2 40 -63 63 -121 71c-114 18 -218 90 -218 225c0 139 126 212 256 212c86 0 169 -24 242 -113l-117 -90c-74 79 -201 76 -204 -6c2 -34 39 -54 94 -66c126 -23 252 -67 244 -241c-6 -137 -150 -212 -280 -212
c-85 0 -175 43 -241 128z" />
    <glyph glyph-name="Sacute" unicode="&#x15a;" horiz-adv-x="564" 
d="M467 922l-131 -166h-155l100 166h186zM22 118l113 106c71 -86 227 -90 232 -14c2 40 -63 63 -121 71c-114 18 -218 90 -218 225c0 139 126 212 256 212c86 0 169 -24 242 -113l-117 -90c-74 79 -201 76 -204 -6c2 -34 39 -54 94 -66c126 -23 252 -67 244 -241
c-6 -137 -150 -212 -280 -212c-85 0 -175 43 -241 128z" />
    <glyph glyph-name="Scaron" unicode="&#x160;" horiz-adv-x="564" 
d="M75 924h168l41 -52l46 52h167l-150 -168h-122zM22 118l113 106c71 -86 227 -90 232 -14c2 40 -63 63 -121 71c-114 18 -218 90 -218 225c0 139 126 212 256 212c86 0 169 -24 242 -113l-117 -90c-74 79 -201 76 -204 -6c2 -34 39 -54 94 -66c126 -23 252 -67 244 -241
c-6 -137 -150 -212 -280 -212c-85 0 -175 43 -241 128z" />
    <glyph glyph-name="Scedilla" unicode="&#x15e;" horiz-adv-x="564" 
d="M299 443c126 -23 252 -67 244 -241c-5 -107 -93 -176 -194 -201l-14 -32c134 -35 80 -223 -65 -223c-44 0 -96 10 -146 51l32 86c44 -30 101 -46 111 -9c7 23 -24 48 -76 52l30 67c-72 12 -144 54 -199 125l113 106c71 -86 227 -90 232 -14c2 40 -63 63 -121 71
c-114 18 -218 90 -218 225c0 139 126 212 256 212c86 0 169 -24 242 -113l-117 -90c-74 79 -201 76 -204 -6c2 -34 39 -54 94 -66z" />
    <glyph glyph-name="Scommaaccent" unicode="&#x218;" horiz-adv-x="564" 
d="M22 118l113 106c71 -86 227 -90 232 -14c2 40 -63 63 -121 71c-114 18 -218 90 -218 225c0 139 126 212 256 212c86 0 169 -24 242 -113l-117 -90c-74 79 -201 76 -204 -6c2 -34 39 -54 94 -66c126 -23 252 -67 244 -241c-6 -137 -150 -212 -280 -212
c-85 0 -175 43 -241 128zM380 -50l-75 -204h-163l61 204h177z" />
    <glyph glyph-name="T" unicode="T" horiz-adv-x="585" 
d="M571 539h-188v-539h-181v539h-188v170h557v-170z" />
    <glyph glyph-name="Tbar" unicode="&#x166;" horiz-adv-x="589" 
d="M385 345h76v-134h-76v-211h-181v211h-80v134h80v194h-188v170h557v-170h-188v-194z" />
    <glyph glyph-name="Tcaron" unicode="&#x164;" horiz-adv-x="585" 
d="M79 924h168l41 -52l46 52h167l-150 -168h-122zM571 539h-188v-539h-181v539h-188v170h557v-170z" />
    <glyph glyph-name="Tcommaaccent" unicode="&#x162;" horiz-adv-x="585" 
d="M571 539h-188v-539h-181v539h-188v170h557v-170zM406 -50l-75 -204h-163l61 204h177z" />
    <glyph glyph-name="uni021A" unicode="&#x21a;" horiz-adv-x="585" 
d="M571 539h-188v-539h-181v539h-188v170h557v-170zM406 -50l-75 -204h-163l61 204h177z" />
    <glyph glyph-name="U" unicode="U" horiz-adv-x="667" 
d="M233 708v-471c0 -114 202 -114 203 0v471h181v-471c-1 -332 -566 -332 -565 0v471h181z" />
    <glyph glyph-name="Uacute" unicode="&#xda;" horiz-adv-x="667" 
d="M518 922l-131 -166h-155l100 166h186zM233 708v-471c0 -114 202 -114 203 0v471h181v-471c-1 -332 -566 -332 -565 0v471h181z" />
    <glyph glyph-name="Ucircumflex" unicode="&#xdb;" horiz-adv-x="667" 
d="M393 924l150 -168h-162l-46 52l-44 -52h-169l154 168h117zM233 708v-471c0 -114 202 -114 203 0v471h181v-471c-1 -332 -566 -332 -565 0v471h181z" />
    <glyph glyph-name="Udieresis" unicode="&#xdc;" horiz-adv-x="667" 
d="M130 834c0 48 37 85 84 85s84 -37 84 -85c0 -46 -37 -83 -84 -83s-84 37 -84 83zM371 834c0 48 35 85 84 85c48 0 85 -37 85 -85c0 -46 -37 -83 -85 -83c-49 0 -84 37 -84 83zM233 708v-471c0 -114 202 -114 203 0v471h181v-471c-1 -332 -566 -332 -565 0v471h181z" />
    <glyph glyph-name="Ugrave" unicode="&#xd9;" horiz-adv-x="667" 
d="M437 756h-155l-131 166h186zM233 708v-471c0 -114 202 -114 203 0v471h181v-471c-1 -332 -566 -332 -565 0v471h181z" />
    <glyph glyph-name="Uhungarumlaut" unicode="&#x170;" horiz-adv-x="667" 
d="M393 914l-111 -158h-141l75 158h177zM625 914l-117 -158h-140l74 158h183zM233 708v-471c0 -114 202 -114 203 0v471h181v-471c-1 -332 -566 -332 -565 0v471h181z" />
    <glyph glyph-name="Umacron" unicode="&#x16a;" horiz-adv-x="667" 
d="M185 758v134h297v-134h-297zM233 708v-471c0 -114 202 -114 203 0v471h181v-471c-1 -332 -566 -332 -565 0v471h181z" />
    <glyph glyph-name="Uogonek" unicode="&#x172;" horiz-adv-x="667" 
d="M616 708v-471c0 -102 -54 -173 -128 -212c-70 -51 -71 -137 -28 -136c11 0 24 4 40 14l28 -107c-34 -28 -80 -40 -115 -40c-132 0 -174 109 -81 232c-141 0 -281 83 -281 249v471h181v-471c0 -114 202 -114 203 0v471h181z" />
    <glyph glyph-name="Uring" unicode="&#x16e;" horiz-adv-x="667" 
d="M203 851c0 67 60 119 133 119s130 -57 130 -119c0 -65 -59 -117 -130 -117c-73 0 -133 50 -133 117zM372 850c0 19 -16 37 -36 37c-24 0 -38 -18 -38 -37c0 -15 14 -33 38 -33c20 0 36 12 36 33zM233 708v-471c0 -114 202 -114 203 0v471h181v-471
c-1 -332 -566 -332 -565 0v471h181z" />
    <glyph glyph-name="V" unicode="V" horiz-adv-x="656" 
d="M361 362l112 347h192l-255 -708h-164l-255 708h192l111 -346l32 -168h3z" />
    <glyph glyph-name="W" unicode="W" horiz-adv-x="915" 
d="M644 367l86 341h185l-204 -708h-166l-63 196l-25 162h-3l-27 -161l-56 -197h-166l-205 708h186l84 -339l18 -150h5l17 149l79 248h136l73 -249l23 -148h3z" />
    <glyph glyph-name="Wacute" unicode="&#x1e82;" horiz-adv-x="915" 
d="M644 922l-131 -166h-155l100 166h186zM644 367l86 341h185l-204 -708h-166l-63 196l-25 162h-3l-27 -161l-56 -197h-166l-205 708h186l84 -339l18 -150h5l17 149l79 248h136l73 -249l23 -148h3z" />
    <glyph glyph-name="Wcircumflex" unicode="&#x174;" horiz-adv-x="915" 
d="M519 924l150 -168h-162l-46 52l-44 -52h-169l154 168h117zM644 367l86 341h185l-204 -708h-166l-63 196l-25 162h-3l-27 -161l-56 -197h-166l-205 708h186l84 -339l18 -150h5l17 149l79 248h136l73 -249l23 -148h3z" />
    <glyph glyph-name="Wdieresis" unicode="&#x1e84;" horiz-adv-x="915" 
d="M256 834c0 48 37 85 84 85s84 -37 84 -85c0 -46 -37 -83 -84 -83s-84 37 -84 83zM497 834c0 48 35 85 84 85c48 0 85 -37 85 -85c0 -46 -37 -83 -85 -83c-49 0 -84 37 -84 83zM644 367l86 341h185l-204 -708h-166l-63 196l-25 162h-3l-27 -161l-56 -197h-166l-205 708
h186l84 -339l18 -150h5l17 149l79 248h136l73 -249l23 -148h3z" />
    <glyph glyph-name="Wgrave" unicode="&#x1e80;" horiz-adv-x="915" 
d="M563 756h-155l-131 166h186zM644 367l86 341h185l-204 -708h-166l-63 196l-25 162h-3l-27 -161l-56 -197h-166l-205 708h186l84 -339l18 -150h5l17 149l79 248h136l73 -249l23 -148h3z" />
    <glyph glyph-name="X" unicode="X" horiz-adv-x="656" 
d="M327 466l124 242h208l-198 -355l198 -353h-208l-124 241l-121 -241h-209l199 353l-199 355h209z" />
    <glyph glyph-name="Y" unicode="Y" horiz-adv-x="655" 
d="M417 0h-179v279l-247 429h208l128 -260l128 260h210l-248 -429v-279z" />
    <glyph glyph-name="Yacute" unicode="&#xdd;" horiz-adv-x="655" 
d="M507 922l-131 -166h-155l100 166h186zM417 0h-179v279l-247 429h208l128 -260l128 260h210l-248 -429v-279z" />
    <glyph glyph-name="Ycircumflex" unicode="&#x176;" horiz-adv-x="655" 
d="M382 924l150 -168h-162l-46 52l-44 -52h-169l154 168h117zM417 0h-179v279l-247 429h208l128 -260l128 260h210l-248 -429v-279z" />
    <glyph glyph-name="Ydieresis" unicode="&#x178;" horiz-adv-x="655" 
d="M119 834c0 48 37 85 84 85s84 -37 84 -85c0 -46 -37 -83 -84 -83s-84 37 -84 83zM360 834c0 48 35 85 84 85c48 0 85 -37 85 -85c0 -46 -37 -83 -85 -83c-49 0 -84 37 -84 83zM417 0h-179v279l-247 429h208l128 -260l128 260h210l-248 -429v-279z" />
    <glyph glyph-name="Ygrave" unicode="&#x1ef2;" horiz-adv-x="655" 
d="M426 756h-155l-131 166h186zM417 0h-179v279l-247 429h208l128 -260l128 260h210l-248 -429v-279z" />
    <glyph glyph-name="Z" unicode="Z" horiz-adv-x="605" 
d="M36 708h515l38 -60l-305 -485l288 2v-165h-525l-33 66l306 476h-284v166z" />
    <glyph glyph-name="Zacute" unicode="&#x179;" horiz-adv-x="605" 
d="M494 922l-131 -166h-155l100 166h186zM36 708h515l38 -60l-305 -485l288 2v-165h-525l-33 66l306 476h-284v166z" />
    <glyph glyph-name="Zcaron" unicode="&#x17d;" horiz-adv-x="605" 
d="M102 924h168l41 -52l46 52h167l-150 -168h-122zM36 708h515l38 -60l-305 -485l288 2v-165h-525l-33 66l306 476h-284v166z" />
    <glyph glyph-name="Zdotaccent" unicode="&#x17b;" horiz-adv-x="605" 
d="M212 851c0 54 43 97 99 97s97 -43 97 -97c0 -55 -41 -98 -97 -98s-99 43 -99 98zM36 708h515l38 -60l-305 -485l288 2v-165h-525l-33 66l306 476h-284v166z" />
    <glyph glyph-name="a" unicode="a" horiz-adv-x="648" 
d="M404 708l253 -708h-192l-46 142h-189l-44 -142h-192l247 708h163zM270 301h106l-49 207h-5z" />
    <glyph glyph-name="aacute" unicode="&#xe1;" horiz-adv-x="648" 
d="M507 922l-131 -166h-155l100 166h186zM404 708l253 -708h-192l-46 142h-189l-44 -142h-192l247 708h163zM270 301h106l-49 207h-5z" />
    <glyph glyph-name="abreve" unicode="&#x103;" horiz-adv-x="648" 
d="M362 922h135c0 -232 -350 -232 -350 0h137c0 -51 78 -51 78 0zM404 708l253 -708h-192l-46 142h-189l-44 -142h-192l247 708h163zM270 301h106l-49 207h-5z" />
    <glyph glyph-name="acircumflex" unicode="&#xe2;" horiz-adv-x="648" 
d="M382 924l150 -168h-162l-46 52l-44 -52h-169l154 168h117zM404 708l253 -708h-192l-46 142h-189l-44 -142h-192l247 708h163zM270 301h106l-49 207h-5z" />
    <glyph glyph-name="adieresis" unicode="&#xe4;" horiz-adv-x="648" 
d="M119 834c0 48 37 85 84 85s84 -37 84 -85c0 -46 -37 -83 -84 -83s-84 37 -84 83zM360 834c0 48 35 85 84 85c48 0 85 -37 85 -85c0 -46 -37 -83 -85 -83c-49 0 -84 37 -84 83zM404 708l253 -708h-192l-46 142h-189l-44 -142h-192l247 708h163zM270 301h106l-49 207h-5z
" />
    <glyph glyph-name="agrave" unicode="&#xe0;" horiz-adv-x="648" 
d="M426 756h-155l-131 166h186zM404 708l253 -708h-192l-46 142h-189l-44 -142h-192l247 708h163zM270 301h106l-49 207h-5z" />
    <glyph glyph-name="amacron" unicode="&#x101;" horiz-adv-x="648" 
d="M174 758v134h297v-134h-297zM404 708l253 -708h-192l-46 142h-189l-44 -142h-192l247 708h163zM270 301h106l-49 207h-5z" />
    <glyph glyph-name="aogonek" unicode="&#x105;" horiz-adv-x="648" 
d="M675 -97l28 -107c-34 -28 -80 -40 -115 -40c-136 0 -175 116 -69 244h-54l-46 142h-189l-44 -142h-192l247 708h163l253 -708c-65 -59 -63 -112 -22 -111c11 0 24 4 40 14zM270 301h106l-49 207h-5z" />
    <glyph glyph-name="aring" unicode="&#xe5;" horiz-adv-x="648" 
d="M465 0l-46 142h-189l-44 -142h-192l240 688c-25 23 -40 56 -40 93c0 71 58 130 131 130s128 -65 128 -131c0 -36 -16 -70 -41 -93l245 -687h-192zM325 819c-24 0 -38 -19 -38 -40c0 -15 14 -35 38 -35c20 0 36 13 36 35c0 21 -16 40 -36 40zM327 508h-5l-52 -207h106z
" />
    <glyph glyph-name="atilde" unicode="&#xe3;" horiz-adv-x="648" 
d="M219 749l-87 49c15 80 59 120 127 118c59 -1 115 -79 147 -4l91 -52c-19 -74 -55 -114 -104 -113c-80 0 -134 80 -174 2zM404 708l253 -708h-192l-46 142h-189l-44 -142h-192l247 708h163zM270 301h106l-49 207h-5z" />
    <glyph glyph-name="ae" unicode="&#xe6;" horiz-adv-x="834" 
d="M794 532h-245v-93h220v-173h-220v-95h245v-171h-415v192h-108l-69 -192h-215l302 708h505v-176zM316 345h72l4 180h-8z" />
    <glyph glyph-name="b" unicode="b" horiz-adv-x="624" 
d="M570 492c-1 -32 -22 -89 -73 -115c97 -49 109 -140 100 -194c-18 -114 -95 -183 -252 -183h-289v708h284c135 0 234 -81 230 -216zM236 431h104c87 0 90 126 0 126h-104v-126zM236 157h104c108 0 106 145 0 145h-104v-145z" />
    <glyph glyph-name="c" unicode="c" horiz-adv-x="582" 
d="M417 221l156 -72c-59 -115 -166 -159 -255 -159c-139 0 -279 81 -279 242v244c0 160 140 242 282 242c87 0 192 -37 249 -163l-146 -59c-48 88 -206 68 -206 -20v-244c0 -85 160 -109 199 -11z" />
    <glyph glyph-name="cacute" unicode="&#x107;" horiz-adv-x="582" 
d="M504 922l-131 -166h-155l100 166h186zM417 221l156 -72c-59 -115 -166 -159 -255 -159c-139 0 -279 81 -279 242v244c0 160 140 242 282 242c87 0 192 -37 249 -163l-146 -59c-48 88 -206 68 -206 -20v-244c0 -85 160 -109 199 -11z" />
    <glyph glyph-name="ccaron" unicode="&#x10d;" horiz-adv-x="582" 
d="M112 924h168l41 -52l46 52h167l-150 -168h-122zM417 221l156 -72c-59 -115 -166 -159 -255 -159c-139 0 -279 81 -279 242v244c0 160 140 242 282 242c87 0 192 -37 249 -163l-146 -59c-48 88 -206 68 -206 -20v-244c0 -85 160 -109 199 -11z" />
    <glyph glyph-name="ccedilla" unicode="&#xe7;" horiz-adv-x="582" 
d="M417 221l156 -72c-44 -87 -116 -133 -187 -151l-13 -29c134 -35 80 -223 -65 -223c-44 0 -96 10 -146 51l32 86c44 -30 101 -46 111 -9c7 23 -24 48 -76 52l31 69c-118 19 -221 99 -221 237v244c0 160 140 242 282 242c87 0 192 -37 249 -163l-146 -59
c-48 88 -206 68 -206 -20v-244c0 -85 160 -109 199 -11z" />
    <glyph glyph-name="cdotaccent" unicode="&#x10b;" horiz-adv-x="582" 
d="M222 851c0 54 43 97 99 97s97 -43 97 -97c0 -55 -41 -98 -97 -98s-99 43 -99 98zM417 221l156 -72c-59 -115 -166 -159 -255 -159c-139 0 -279 81 -279 242v244c0 160 140 242 282 242c87 0 192 -37 249 -163l-146 -59c-48 88 -206 68 -206 -20v-244
c0 -85 160 -109 199 -11z" />
    <glyph glyph-name="d" unicode="d" horiz-adv-x="636" 
d="M56 708h265c142 0 275 -72 275 -237v-238c0 -163 -133 -234 -275 -233h-265v708zM236 168h91c61 0 89 31 89 77v221c0 46 -29 75 -89 75h-91v-373z" />
    <glyph glyph-name="eth" unicode="&#xf0;" horiz-adv-x="642" 
d="M62 428v280h286c143 0 254 -69 254 -234v-241c0 -163 -111 -233 -254 -233h-286v285h-48v143h48zM243 176h105c47 0 74 19 74 57v241c0 39 -27 58 -74 58h-105v-104h83v-143h-83v-109z" />
    <glyph glyph-name="dcaron" unicode="&#x10f;" horiz-adv-x="636" 
d="M80 924h168l41 -52l46 52h167l-150 -168h-122zM56 708h265c142 0 275 -72 275 -237v-238c0 -163 -133 -234 -275 -233h-265v708zM236 168h91c61 0 89 31 89 77v221c0 46 -29 75 -89 75h-91v-373z" />
    <glyph glyph-name="dcroat" unicode="&#x111;" horiz-adv-x="642" 
d="M62 428v280h286c143 0 254 -69 254 -234v-241c0 -163 -111 -233 -254 -233h-286v285h-48v143h48zM243 176h105c47 0 74 19 74 57v241c0 39 -27 58 -74 58h-105v-104h83v-143h-83v-109z" />
    <glyph glyph-name="e" unicode="e" 
d="M237 540v-110h287v-155h-287v-106h312v-169h-493v708h493v-168h-312z" />
    <glyph glyph-name="eacute" unicode="&#xe9;" 
d="M492 922l-131 -166h-155l100 166h186zM237 540v-110h287v-155h-287v-106h312v-169h-493v708h493v-168h-312z" />
    <glyph glyph-name="ecaron" unicode="&#x11b;" 
d="M100 924h168l41 -52l46 52h167l-150 -168h-122zM237 540v-110h287v-155h-287v-106h312v-169h-493v708h493v-168h-312z" />
    <glyph glyph-name="ecircumflex" unicode="&#xea;" 
d="M367 924l150 -168h-162l-46 52l-44 -52h-169l154 168h117zM237 540v-110h287v-155h-287v-106h312v-169h-493v708h493v-168h-312z" />
    <glyph glyph-name="edieresis" unicode="&#xeb;" 
d="M104 834c0 48 37 85 84 85s84 -37 84 -85c0 -46 -37 -83 -84 -83s-84 37 -84 83zM345 834c0 48 35 85 84 85c48 0 85 -37 85 -85c0 -46 -37 -83 -85 -83c-49 0 -84 37 -84 83zM237 540v-110h287v-155h-287v-106h312v-169h-493v708h493v-168h-312z" />
    <glyph glyph-name="edotaccent" unicode="&#x117;" 
d="M210 851c0 54 43 97 99 97s97 -43 97 -97c0 -55 -41 -98 -97 -98s-99 43 -99 98zM237 540v-110h287v-155h-287v-106h312v-169h-493v708h493v-168h-312z" />
    <glyph glyph-name="egrave" unicode="&#xe8;" 
d="M411 756h-155l-131 166h186zM237 540v-110h287v-155h-287v-106h312v-169h-493v708h493v-168h-312z" />
    <glyph glyph-name="emacron" unicode="&#x113;" 
d="M159 758v134h297v-134h-297zM237 540v-110h287v-155h-287v-106h312v-169h-493v708h493v-168h-312z" />
    <glyph glyph-name="eogonek" unicode="&#x119;" 
d="M568 -97l28 -107c-34 -28 -80 -40 -115 -40c-136 0 -175 116 -69 244h-356v708h493v-168h-312v-110h287v-155h-287v-106h312v-169c-64 -61 -62 -112 -21 -111c11 0 24 4 40 14z" />
    <glyph glyph-name="f" unicode="f" horiz-adv-x="576" 
d="M237 538v-127h273v-167h-273v-244h-181v708h493v-170h-312z" />
    <glyph glyph-name="g" unicode="g" horiz-adv-x="624" 
d="M565 567l-150 -69c-39 95 -197 73 -197 -20v-243c0 -111 207 -110 207 0v26h-113v150h285v-176c0 -163 -136 -245 -278 -245c-140 0 -280 82 -280 245v243c0 160 140 240 280 240c92 0 197 -38 246 -151z" />
    <glyph glyph-name="gbreve" unicode="&#x11f;" horiz-adv-x="624" 
d="M357 922h135c0 -232 -350 -232 -350 0h137c0 -51 78 -51 78 0zM565 567l-150 -69c-39 95 -197 73 -197 -20v-243c0 -111 207 -110 207 0v26h-113v150h285v-176c0 -163 -136 -245 -278 -245c-140 0 -280 82 -280 245v243c0 160 140 240 280 240c92 0 197 -38 246 -151z
" />
    <glyph glyph-name="gcommaaccent" unicode="&#x123;" horiz-adv-x="624" 
d="M565 567l-150 -69c-39 95 -197 73 -197 -20v-243c0 -111 207 -110 207 0v26h-113v150h285v-176c0 -163 -136 -245 -278 -245c-140 0 -280 82 -280 245v243c0 160 140 240 280 240c92 0 197 -38 246 -151zM428 -46l-75 -204h-163l61 204h177z" />
    <glyph glyph-name="gdotaccent" unicode="&#x121;" horiz-adv-x="624" 
d="M220 851c0 54 43 97 99 97s97 -43 97 -97c0 -55 -41 -98 -97 -98s-99 43 -99 98zM565 567l-150 -69c-39 95 -197 73 -197 -20v-243c0 -111 207 -110 207 0v26h-113v150h285v-176c0 -163 -136 -245 -278 -245c-140 0 -280 82 -280 245v243c0 160 140 240 280 240
c92 0 197 -38 246 -151z" />
    <glyph glyph-name="h" unicode="h" horiz-adv-x="676" 
d="M236 267v-267h-180v708h180v-268h204v268h180v-708h-180v267h-204z" />
    <glyph glyph-name="hbar" unicode="&#x127;" horiz-adv-x="697" 
d="M631 518v-518h-180v267h-204v-267h-180v518h-59v104h59v86h180v-86h204v86h180v-86h58v-104h-58zM247 518v-78h204v78h-204z" />
    <glyph glyph-name="i" unicode="i" horiz-adv-x="291" 
d="M235 708v-708h-179v708h179z" />
    <glyph glyph-name="dotlessi" unicode="&#x131;" horiz-adv-x="291" 
d="M235 708v-708h-179v708h179z" />
    <glyph glyph-name="iacute" unicode="&#xed;" horiz-adv-x="291" 
d="M329 922l-131 -166h-155l100 166h186zM235 708v-708h-179v708h179z" />
    <glyph glyph-name="icircumflex" unicode="&#xee;" horiz-adv-x="291" 
d="M204 924l140 -168h-162l-36 50l-34 -50h-169l144 168h117zM235 708v-708h-179v708h179z" />
    <glyph glyph-name="idieresis" unicode="&#xef;" horiz-adv-x="291" 
d="M-43 834c0 48 37 85 84 85s84 -37 84 -85c0 -46 -37 -83 -84 -83s-84 37 -84 83zM168 834c0 48 35 85 84 85c48 0 85 -37 85 -85c0 -46 -37 -83 -85 -83c-49 0 -84 37 -84 83zM235 708v-708h-179v708h179z" />
    <glyph glyph-name="i.loclTRK" horiz-adv-x="291" 
d="M235 708v-708h-179v708h179z" />
    <glyph glyph-name="igrave" unicode="&#xec;" horiz-adv-x="291" 
d="M248 756h-155l-131 166h186zM235 708v-708h-179v708h179z" />
    <glyph glyph-name="ij" unicode="&#x133;" horiz-adv-x="878" 
d="M235 708v-708h-179v708h179zM294 208l169 35c10 -57 57 -80 101 -80s86 27 86 68v315h-161v162h338v-477c0 -154 -135 -241 -270 -241c-122 0 -243 68 -263 218z" />
    <glyph glyph-name="imacron" unicode="&#x12b;" horiz-adv-x="291" 
d="M-4 758v134h297v-134h-297zM235 708v-708h-179v708h179z" />
    <glyph glyph-name="iogonek" unicode="&#x12f;" horiz-adv-x="291" 
d="M252 -97l28 -107c-34 -28 -80 -40 -115 -40c-136 0 -175 116 -69 244h-40v708h179v-708c-59 -51 -66 -112 -23 -111c11 0 24 4 40 14z" />
    <glyph glyph-name="j" unicode="j" horiz-adv-x="587" 
d="M3 208l169 35c10 -57 57 -80 101 -80s86 27 86 68v315h-161v162h338v-477c0 -154 -135 -241 -270 -241c-122 0 -243 68 -263 218z" />
    <glyph glyph-name="k" unicode="k" horiz-adv-x="640" 
d="M236 446l192 262h223l-280 -342l279 -366h-227l-181 253l-6 -8v-245h-180v708h180v-262z" />
    <glyph glyph-name="kcommaaccent" unicode="&#x137;" horiz-adv-x="640" 
d="M236 446l192 262h223l-280 -342l279 -366h-227l-181 253l-6 -8v-245h-180v708h180v-262zM437 -50l-75 -204h-163l61 204h177z" />
    <glyph glyph-name="l" unicode="l" horiz-adv-x="539" 
d="M56 0v708h180v-531h288v-177h-468z" />
    <glyph glyph-name="lacute" unicode="&#x13a;" horiz-adv-x="539" 
d="M331 922l-131 -166h-155l100 166h186zM56 0v708h180v-531h288v-177h-468z" />
    <glyph glyph-name="lcaron" unicode="&#x13e;" horiz-adv-x="549" 
d="M56 0v708h180v-531h288v-177h-468zM544 704l-75 -204h-153l61 204h167z" />
    <glyph glyph-name="lcommaaccent" unicode="&#x13c;" horiz-adv-x="539" 
d="M56 0v708h180v-531h288v-177h-468zM406 -50l-75 -204h-163l61 204h177z" />
    <glyph glyph-name="ldot" unicode="&#x140;" horiz-adv-x="548" 
d="M56 0v708h180v-531h288v-177h-468zM293 380c0 54 40 97 97 97c54 0 94 -43 94 -97c0 -53 -40 -94 -94 -94c-57 0 -97 41 -97 94z" />
    <glyph glyph-name="lslash" unicode="&#x142;" horiz-adv-x="570" 
d="M542 182v-182h-455v257l-41 -17l-45 113l86 36v319h181v-242l129 53l47 -112l-176 -73v-152h274z" />
    <glyph glyph-name="m" unicode="m" horiz-adv-x="769" 
d="M56 0v708h179l149 -346l150 346h179v-708h-180l1 204l11 143l-6 1l-93 -243h-123l-95 243l-5 -1l12 -143v-204h-179z" />
    <glyph glyph-name="n" unicode="n" horiz-adv-x="676" 
d="M56 0v708h170l171 -302l60 -142l5 1c-1 0 -19 122 -20 122v321h178v-708h-181l-160 279l-62 142l-5 -1l23 -137v-283h-179z" />
    <glyph glyph-name="nacute" unicode="&#x144;" horiz-adv-x="676" 
d="M523 922l-131 -166h-155l100 166h186zM56 0v708h170l171 -302l60 -142l5 1c-1 0 -19 122 -20 122v321h178v-708h-181l-160 279l-62 142l-5 -1l23 -137v-283h-179z" />
    <glyph glyph-name="ncaron" unicode="&#x148;" horiz-adv-x="676" 
d="M131 924h168l41 -52l46 52h167l-150 -168h-122zM56 0v708h170l171 -302l60 -142l5 1c-1 0 -19 122 -20 122v321h178v-708h-181l-160 279l-62 142l-5 -1l23 -137v-283h-179z" />
    <glyph glyph-name="ncommaaccent" unicode="&#x146;" horiz-adv-x="676" 
d="M56 0v708h170l171 -302l60 -142l5 1c-1 0 -19 122 -20 122v321h178v-708h-181l-160 279l-62 142l-5 -1l23 -137v-283h-179zM455 -50l-75 -204h-163l61 204h177z" />
    <glyph glyph-name="eng" unicode="&#x14b;" horiz-adv-x="676" 
d="M620 708v-713c0 -152 -106 -232 -245 -196v147c50 -12 76 20 76 51v10l-172 272l-62 142l-4 -1l22 -137v-283h-179v708h170l171 -294l60 -142l3 1c-1 0 -17 122 -18 122v313h178z" />
    <glyph glyph-name="ntilde" unicode="&#xf1;" horiz-adv-x="676" 
d="M238 745l-87 49c15 80 59 120 127 118c59 -1 115 -79 147 -4l91 -52c-19 -74 -55 -114 -104 -113c-80 0 -134 80 -174 2zM56 0v708h170l171 -302l60 -142l5 1c-1 0 -19 122 -20 122v321h178v-708h-181l-160 279l-62 142l-5 -1l23 -137v-283h-179z" />
    <glyph glyph-name="o" unicode="o" horiz-adv-x="665" 
d="M39 233v242c0 163 146 243 293 243s294 -81 294 -243v-242c0 -162 -146 -243 -293 -243s-294 81 -294 243zM218 475v-242c0 -52 58 -77 115 -77s114 26 114 77v242c0 55 -59 80 -117 80c-56 0 -112 -28 -112 -80z" />
    <glyph glyph-name="oacute" unicode="&#xf3;" horiz-adv-x="665" 
d="M515 924l-131 -166h-155l100 166h186zM39 233v242c0 163 146 243 293 243s294 -81 294 -243v-242c0 -162 -146 -243 -293 -243s-294 81 -294 243zM218 475v-242c0 -52 58 -77 115 -77s114 26 114 77v242c0 55 -59 80 -117 80c-56 0 -112 -28 -112 -80z" />
    <glyph glyph-name="ocircumflex" unicode="&#xf4;" horiz-adv-x="665" 
d="M390 926l150 -168h-162l-46 52l-44 -52h-169l154 168h117zM39 233v242c0 163 146 243 293 243s294 -81 294 -243v-242c0 -162 -146 -243 -293 -243s-294 81 -294 243zM218 475v-242c0 -52 58 -77 115 -77s114 26 114 77v242c0 55 -59 80 -117 80c-56 0 -112 -28 -112 -80
z" />
    <glyph glyph-name="odieresis" unicode="&#xf6;" horiz-adv-x="665" 
d="M127 836c0 48 37 85 84 85s84 -37 84 -85c0 -46 -37 -83 -84 -83s-84 37 -84 83zM368 836c0 48 35 85 84 85c48 0 85 -37 85 -85c0 -46 -37 -83 -85 -83c-49 0 -84 37 -84 83zM39 233v242c0 163 146 243 293 243s294 -81 294 -243v-242c0 -162 -146 -243 -293 -243
s-294 81 -294 243zM218 475v-242c0 -52 58 -77 115 -77s114 26 114 77v242c0 55 -59 80 -117 80c-56 0 -112 -28 -112 -80z" />
    <glyph glyph-name="ograve" unicode="&#xf2;" horiz-adv-x="665" 
d="M434 758h-155l-131 166h186zM39 233v242c0 163 146 243 293 243s294 -81 294 -243v-242c0 -162 -146 -243 -293 -243s-294 81 -294 243zM218 475v-242c0 -52 58 -77 115 -77s114 26 114 77v242c0 55 -59 80 -117 80c-56 0 -112 -28 -112 -80z" />
    <glyph glyph-name="ohungarumlaut" unicode="&#x151;" horiz-adv-x="665" 
d="M390 916l-111 -158h-141l75 158h177zM622 916l-117 -158h-140l74 158h183zM39 233v242c0 163 146 243 293 243s294 -81 294 -243v-242c0 -162 -146 -243 -293 -243s-294 81 -294 243zM218 475v-242c0 -52 58 -77 115 -77s114 26 114 77v242c0 55 -59 80 -117 80
c-56 0 -112 -28 -112 -80z" />
    <glyph glyph-name="omacron" unicode="&#x14d;" horiz-adv-x="665" 
d="M182 760v134h297v-134h-297zM39 233v242c0 163 146 243 293 243s294 -81 294 -243v-242c0 -162 -146 -243 -293 -243s-294 81 -294 243zM218 475v-242c0 -52 58 -77 115 -77s114 26 114 77v242c0 55 -59 80 -117 80c-56 0 -112 -28 -112 -80z" />
    <glyph glyph-name="oslash" unicode="&#xf8;" horiz-adv-x="665" 
d="M574 756l-39 -99c55 -41 91 -101 91 -182v-242c0 -162 -146 -243 -293 -243c-16 0 -32 1 -47 3l-39 -96l-158 56l42 98c-55 40 -92 101 -92 182v242c0 163 146 243 293 243c16 0 33 -1 49 -3l36 93zM447 233v242c0 55 -59 80 -117 80c-56 0 -112 -28 -112 -80v-242
c0 -52 58 -77 115 -77s114 26 114 77z" />
    <glyph glyph-name="otilde" unicode="&#xf5;" horiz-adv-x="665" 
d="M230 747l-87 49c15 80 59 120 127 118c59 -1 115 -79 147 -4l91 -52c-19 -74 -55 -114 -104 -113c-80 0 -134 80 -174 2zM39 233v242c0 163 146 243 293 243s294 -81 294 -243v-242c0 -162 -146 -243 -293 -243s-294 81 -294 243zM218 475v-242c0 -52 58 -77 115 -77
s114 26 114 77v242c0 55 -59 80 -117 80c-56 0 -112 -28 -112 -80z" />
    <glyph glyph-name="oe" unicode="&#x153;" horiz-adv-x="812" 
d="M535 539v-105h212v-163h-212v-103h238v-168h-391v32c-38 -30 -81 -42 -122 -42c-143 0 -218 92 -218 222v278c0 138 99 228 212 228c42 0 86 -10 128 -35v25h391v-169h-238zM382 171v368c-59 48 -160 24 -160 -50v-261c0 -61 43 -84 86 -84c31 0 61 11 74 27z" />
    <glyph glyph-name="p" unicode="p" horiz-adv-x="618" 
d="M56 0v708h283c173 0 259 -125 259 -250c0 -126 -87 -251 -258 -251h-105v-207h-179zM235 366h104c108 -1 108 176 0 175h-104v-175z" />
    <glyph glyph-name="thorn" unicode="&#xfe;" horiz-adv-x="556" 
d="M237 602h10c190 0 292 -81 292 -240c0 -184 -152 -235 -302 -235v-126h-181v714h181v-113zM237 439v-154c170 -20 170 173 0 154z" />
    <glyph glyph-name="q" unicode="q" horiz-adv-x="665" 
d="M39 233v242c0 163 146 243 293 243s294 -81 294 -243v-242c0 -49 -14 -91 -36 -125l55 -56l-99 -89l-58 60c-47 -22 -101 -33 -155 -33c-147 0 -294 81 -294 243zM218 475v-242c0 -65 81 -101 139 -76l-58 60l99 86l49 -50v222c0 109 -229 106 -229 0z" />
    <glyph glyph-name="r" unicode="r" horiz-adv-x="646" 
d="M433 0l-164 225h-32v-225h-181v708h283c146 0 259 -67 263 -233c0 -131 -53 -205 -139 -232l193 -243h-223zM237 379h105c113 0 113 162 0 162h-105v-162z" />
    <glyph glyph-name="racute" unicode="&#x155;" horiz-adv-x="646" 
d="M490 922l-131 -166h-155l100 166h186zM433 0l-164 225h-32v-225h-181v708h283c146 0 259 -67 263 -233c0 -131 -53 -205 -139 -232l193 -243h-223zM237 379h105c113 0 113 162 0 162h-105v-162z" />
    <glyph glyph-name="rcaron" unicode="&#x159;" horiz-adv-x="646" 
d="M98 924h168l41 -52l46 52h167l-150 -168h-122zM433 0l-164 225h-32v-225h-181v708h283c146 0 259 -67 263 -233c0 -131 -53 -205 -139 -232l193 -243h-223zM237 379h105c113 0 113 162 0 162h-105v-162z" />
    <glyph glyph-name="rcommaaccent" unicode="&#x157;" horiz-adv-x="646" 
d="M433 0l-164 225h-32v-225h-181v708h283c146 0 259 -67 263 -233c0 -131 -53 -205 -139 -232l193 -243h-223zM237 379h105c113 0 113 162 0 162h-105v-162zM443 -50l-75 -204h-163l61 204h177z" />
    <glyph glyph-name="s" unicode="s" horiz-adv-x="564" 
d="M22 118l113 106c71 -86 227 -90 232 -14c2 40 -63 63 -121 71c-114 18 -218 90 -218 225c0 139 126 212 256 212c86 0 169 -24 242 -113l-117 -90c-74 79 -201 76 -204 -6c2 -34 39 -54 94 -66c126 -23 252 -67 244 -241c-6 -137 -150 -212 -280 -212
c-85 0 -175 43 -241 128z" />
    <glyph glyph-name="sacute" unicode="&#x15b;" horiz-adv-x="564" 
d="M467 922l-131 -166h-155l100 166h186zM22 118l113 106c71 -86 227 -90 232 -14c2 40 -63 63 -121 71c-114 18 -218 90 -218 225c0 139 126 212 256 212c86 0 169 -24 242 -113l-117 -90c-74 79 -201 76 -204 -6c2 -34 39 -54 94 -66c126 -23 252 -67 244 -241
c-6 -137 -150 -212 -280 -212c-85 0 -175 43 -241 128z" />
    <glyph glyph-name="scaron" unicode="&#x161;" horiz-adv-x="564" 
d="M75 924h168l41 -52l46 52h167l-150 -168h-122zM22 118l113 106c71 -86 227 -90 232 -14c2 40 -63 63 -121 71c-114 18 -218 90 -218 225c0 139 126 212 256 212c86 0 169 -24 242 -113l-117 -90c-74 79 -201 76 -204 -6c2 -34 39 -54 94 -66c126 -23 252 -67 244 -241
c-6 -137 -150 -212 -280 -212c-85 0 -175 43 -241 128z" />
    <glyph glyph-name="scedilla" unicode="&#x15f;" horiz-adv-x="564" 
d="M299 443c126 -23 252 -67 244 -241c-5 -107 -93 -176 -194 -201l-14 -32c134 -35 80 -223 -65 -223c-44 0 -96 10 -146 51l32 86c44 -30 101 -46 111 -9c7 23 -24 48 -76 52l30 67c-72 12 -144 54 -199 125l113 106c71 -86 227 -90 232 -14c2 40 -63 63 -121 71
c-114 18 -218 90 -218 225c0 139 126 212 256 212c86 0 169 -24 242 -113l-117 -90c-74 79 -201 76 -204 -6c2 -34 39 -54 94 -66z" />
    <glyph glyph-name="scommaaccent" unicode="&#x219;" horiz-adv-x="564" 
d="M22 118l113 106c71 -86 227 -90 232 -14c2 40 -63 63 -121 71c-114 18 -218 90 -218 225c0 139 126 212 256 212c86 0 169 -24 242 -113l-117 -90c-74 79 -201 76 -204 -6c2 -34 39 -54 94 -66c126 -23 252 -67 244 -241c-6 -137 -150 -212 -280 -212
c-85 0 -175 43 -241 128zM380 -50l-75 -204h-163l61 204h177z" />
    <glyph glyph-name="germandbls" unicode="&#xdf;" horiz-adv-x="576" 
d="M48 0v507c-2 140 118 211 236 211c115 0 229 -67 229 -206c0 -40 -12 -108 -74 -149c121 -44 135 -189 79 -277c-39 -64 -119 -96 -197 -96c-24 0 -47 3 -72 9v158c60 -30 117 14 117 65c0 38 -32 60 -72 60h-45v152c116 -24 121 126 33 126c-33 0 -65 -20 -65 -60v-500
h-169z" />
    <glyph glyph-name="t" unicode="t" horiz-adv-x="585" 
d="M571 539h-188v-539h-181v539h-188v170h557v-170z" />
    <glyph glyph-name="tbar" unicode="&#x167;" horiz-adv-x="589" 
d="M385 345h76v-134h-76v-211h-181v211h-80v134h80v194h-188v170h557v-170h-188v-194z" />
    <glyph glyph-name="tcaron" unicode="&#x165;" horiz-adv-x="585" 
d="M79 924h168l41 -52l46 52h167l-150 -168h-122zM571 539h-188v-539h-181v539h-188v170h557v-170z" />
    <glyph glyph-name="tcommaaccent" unicode="&#x163;" horiz-adv-x="585" 
d="M571 539h-188v-539h-181v539h-188v170h557v-170zM406 -50l-75 -204h-163l61 204h177z" />
    <glyph glyph-name="uni021B" unicode="&#x21b;" horiz-adv-x="585" 
d="M571 539h-188v-539h-181v539h-188v170h557v-170zM406 -50l-75 -204h-163l61 204h177z" />
    <glyph glyph-name="u" unicode="u" horiz-adv-x="667" 
d="M233 708v-471c0 -114 202 -114 203 0v471h181v-471c-1 -332 -566 -332 -565 0v471h181z" />
    <glyph glyph-name="uacute" unicode="&#xfa;" horiz-adv-x="667" 
d="M518 922l-131 -166h-155l100 166h186zM233 708v-471c0 -114 202 -114 203 0v471h181v-471c-1 -332 -566 -332 -565 0v471h181z" />
    <glyph glyph-name="ucircumflex" unicode="&#xfb;" horiz-adv-x="667" 
d="M393 924l150 -168h-162l-46 52l-44 -52h-169l154 168h117zM233 708v-471c0 -114 202 -114 203 0v471h181v-471c-1 -332 -566 -332 -565 0v471h181z" />
    <glyph glyph-name="udieresis" unicode="&#xfc;" horiz-adv-x="667" 
d="M130 834c0 48 37 85 84 85s84 -37 84 -85c0 -46 -37 -83 -84 -83s-84 37 -84 83zM371 834c0 48 35 85 84 85c48 0 85 -37 85 -85c0 -46 -37 -83 -85 -83c-49 0 -84 37 -84 83zM233 708v-471c0 -114 202 -114 203 0v471h181v-471c-1 -332 -566 -332 -565 0v471h181z" />
    <glyph glyph-name="ugrave" unicode="&#xf9;" horiz-adv-x="667" 
d="M437 756h-155l-131 166h186zM233 708v-471c0 -114 202 -114 203 0v471h181v-471c-1 -332 -566 -332 -565 0v471h181z" />
    <glyph glyph-name="uhungarumlaut" unicode="&#x171;" horiz-adv-x="667" 
d="M393 914l-111 -158h-141l75 158h177zM625 914l-117 -158h-140l74 158h183zM233 708v-471c0 -114 202 -114 203 0v471h181v-471c-1 -332 -566 -332 -565 0v471h181z" />
    <glyph glyph-name="umacron" unicode="&#x16b;" horiz-adv-x="667" 
d="M185 758v134h297v-134h-297zM233 708v-471c0 -114 202 -114 203 0v471h181v-471c-1 -332 -566 -332 -565 0v471h181z" />
    <glyph glyph-name="uogonek" unicode="&#x173;" horiz-adv-x="667" 
d="M616 708v-471c0 -102 -54 -173 -128 -212c-70 -51 -71 -137 -28 -136c11 0 24 4 40 14l28 -107c-34 -28 -80 -40 -115 -40c-132 0 -174 109 -81 232c-141 0 -281 83 -281 249v471h181v-471c0 -114 202 -114 203 0v471h181z" />
    <glyph glyph-name="uring" unicode="&#x16f;" horiz-adv-x="667" 
d="M203 851c0 67 60 119 133 119s130 -57 130 -119c0 -65 -59 -117 -130 -117c-73 0 -133 50 -133 117zM372 850c0 19 -16 37 -36 37c-24 0 -38 -18 -38 -37c0 -15 14 -33 38 -33c20 0 36 12 36 33zM233 708v-471c0 -114 202 -114 203 0v471h181v-471
c-1 -332 -566 -332 -565 0v471h181z" />
    <glyph glyph-name="v" unicode="v" horiz-adv-x="656" 
d="M361 362l112 347h192l-255 -708h-164l-255 708h192l111 -346l32 -168h3z" />
    <glyph glyph-name="w" unicode="w" horiz-adv-x="915" 
d="M644 367l86 341h185l-204 -708h-166l-63 196l-25 162h-3l-27 -161l-56 -197h-166l-205 708h186l84 -339l18 -150h5l17 149l79 248h136l73 -249l23 -148h3z" />
    <glyph glyph-name="wacute" unicode="&#x1e83;" horiz-adv-x="915" 
d="M644 922l-131 -166h-155l100 166h186zM644 367l86 341h185l-204 -708h-166l-63 196l-25 162h-3l-27 -161l-56 -197h-166l-205 708h186l84 -339l18 -150h5l17 149l79 248h136l73 -249l23 -148h3z" />
    <glyph glyph-name="wcircumflex" unicode="&#x175;" horiz-adv-x="915" 
d="M519 924l150 -168h-162l-46 52l-44 -52h-169l154 168h117zM644 367l86 341h185l-204 -708h-166l-63 196l-25 162h-3l-27 -161l-56 -197h-166l-205 708h186l84 -339l18 -150h5l17 149l79 248h136l73 -249l23 -148h3z" />
    <glyph glyph-name="wdieresis" unicode="&#x1e85;" horiz-adv-x="915" 
d="M256 834c0 48 37 85 84 85s84 -37 84 -85c0 -46 -37 -83 -84 -83s-84 37 -84 83zM497 834c0 48 35 85 84 85c48 0 85 -37 85 -85c0 -46 -37 -83 -85 -83c-49 0 -84 37 -84 83zM644 367l86 341h185l-204 -708h-166l-63 196l-25 162h-3l-27 -161l-56 -197h-166l-205 708
h186l84 -339l18 -150h5l17 149l79 248h136l73 -249l23 -148h3z" />
    <glyph glyph-name="wgrave" unicode="&#x1e81;" horiz-adv-x="915" 
d="M563 756h-155l-131 166h186zM644 367l86 341h185l-204 -708h-166l-63 196l-25 162h-3l-27 -161l-56 -197h-166l-205 708h186l84 -339l18 -150h5l17 149l79 248h136l73 -249l23 -148h3z" />
    <glyph glyph-name="x" unicode="x" horiz-adv-x="656" 
d="M327 466l124 242h208l-198 -355l198 -353h-208l-124 241l-121 -241h-209l199 353l-199 355h209z" />
    <glyph glyph-name="y" unicode="y" horiz-adv-x="655" 
d="M417 0h-179v279l-247 429h208l128 -260l128 260h210l-248 -429v-279z" />
    <glyph glyph-name="yacute" unicode="&#xfd;" horiz-adv-x="655" 
d="M507 922l-131 -166h-155l100 166h186zM417 0h-179v279l-247 429h208l128 -260l128 260h210l-248 -429v-279z" />
    <glyph glyph-name="ycircumflex" unicode="&#x177;" horiz-adv-x="655" 
d="M382 924l150 -168h-162l-46 52l-44 -52h-169l154 168h117zM417 0h-179v279l-247 429h208l128 -260l128 260h210l-248 -429v-279z" />
    <glyph glyph-name="ydieresis" unicode="&#xff;" horiz-adv-x="655" 
d="M119 834c0 48 37 85 84 85s84 -37 84 -85c0 -46 -37 -83 -84 -83s-84 37 -84 83zM360 834c0 48 35 85 84 85c48 0 85 -37 85 -85c0 -46 -37 -83 -85 -83c-49 0 -84 37 -84 83zM417 0h-179v279l-247 429h208l128 -260l128 260h210l-248 -429v-279z" />
    <glyph glyph-name="ygrave" unicode="&#x1ef3;" horiz-adv-x="655" 
d="M426 756h-155l-131 166h186zM417 0h-179v279l-247 429h208l128 -260l128 260h210l-248 -429v-279z" />
    <glyph glyph-name="z" unicode="z" horiz-adv-x="605" 
d="M36 708h515l38 -60l-305 -485l288 2v-165h-525l-33 66l306 476h-284v166z" />
    <glyph glyph-name="zacute" unicode="&#x17a;" horiz-adv-x="605" 
d="M494 922l-131 -166h-155l100 166h186zM36 708h515l38 -60l-305 -485l288 2v-165h-525l-33 66l306 476h-284v166z" />
    <glyph glyph-name="zcaron" unicode="&#x17e;" horiz-adv-x="605" 
d="M102 924h168l41 -52l46 52h167l-150 -168h-122zM36 708h515l38 -60l-305 -485l288 2v-165h-525l-33 66l306 476h-284v166z" />
    <glyph glyph-name="zdotaccent" unicode="&#x17c;" horiz-adv-x="605" 
d="M212 851c0 54 43 97 99 97s97 -43 97 -97c0 -55 -41 -98 -97 -98s-99 43 -99 98zM36 708h515l38 -60l-305 -485l288 2v-165h-525l-33 66l306 476h-284v166z" />
    <glyph glyph-name="ordfeminine" unicode="&#xaa;" horiz-adv-x="373" 
d="M94 574l-56 52c79 121 292 96 292 -59v-233c-129 -35 -299 -43 -299 112c0 118 122 135 191 113c-3 54 -87 52 -128 15zM215 405v66c-28 12 -74 5 -76 -28c0 -42 47 -46 76 -38z" />
    <glyph glyph-name="ordmasculine" unicode="&#xba;" horiz-adv-x="410" 
d="M205 298c-84 0 -172 50 -172 149v120c0 100 88 149 172 149s172 -49 172 -149v-120c0 -99 -88 -149 -172 -149zM168 567v-120c1 -44 73 -47 74 0v119c-1 47 -74 47 -74 1z" />
    <glyph glyph-name="uni0410" unicode="&#x410;" horiz-adv-x="648" 
d="M404 708l253 -708h-192l-46 142h-189l-44 -142h-192l247 708h163zM270 301h106l-49 207h-5z" />
    <glyph glyph-name="uni0411" unicode="&#x411;" horiz-adv-x="616" 
d="M598 231c0 -141 -96 -231 -253 -231h-289v708h484v-150h-304v-110h104c197 0 258 -76 258 -217zM236 157h104c61 0 81 33 81 83s-27 78 -82 78h-103v-161z" />
    <glyph glyph-name="uni0412" unicode="&#x412;" horiz-adv-x="626" 
d="M570 492c-1 -32 -22 -89 -73 -115c97 -49 109 -140 100 -194c-18 -114 -95 -183 -252 -183h-289v708h284c135 0 234 -81 230 -216zM236 431h104c87 0 90 126 0 126h-104v-126zM236 157h104c108 0 106 145 0 145h-104v-145z" />
    <glyph glyph-name="uni0413" unicode="&#x413;" horiz-adv-x="511" 
d="M56 708h441v-170h-261v-538h-180v708z" />
    <glyph glyph-name="uni0414" unicode="&#x414;" horiz-adv-x="746" 
d="M201 -142h-183v303c140 0 133 149 144 310l17 237h462v-547h86v-303h-180v142h-346v-142zM461 161v377h-120l-15 -215c-3 -53 -12 -115 -30 -162h165z" />
    <glyph glyph-name="uni0415" unicode="&#x415;" 
d="M237 540v-110h287v-155h-287v-106h312v-169h-493v708h493v-168h-312z" />
    <glyph glyph-name="uni0401" unicode="&#x401;" 
d="M104 834c0 48 37 85 84 85s84 -37 84 -85c0 -46 -37 -83 -84 -83s-84 37 -84 83zM345 834c0 48 35 85 84 85c48 0 85 -37 85 -85c0 -46 -37 -83 -85 -83c-49 0 -84 37 -84 83zM237 540v-110h287v-155h-287v-106h312v-169h-493v708h493v-168h-312z" />
    <glyph glyph-name="uni0416" unicode="&#x416;" horiz-adv-x="948" 
d="M384 0v260l-6 8l-163 -268h-223l252 360l-253 348h216l177 -265v265h180v-265l177 265h216l-253 -348l252 -360h-223l-163 268l-6 -8v-260h-180z" />
    <glyph glyph-name="uni0417" unicode="&#x417;" horiz-adv-x="569" 
d="M440 377c74 -37 101 -102 101 -165c0 -140 -105 -222 -284 -222c-110 0 -206 52 -259 139l114 89c40 -45 91 -71 135 -71c72 0 114 25 114 76s-34 81 -92 81h-105v123h101c53 0 85 27 85 74c0 40 -30 67 -90 67c-52 0 -106 -33 -129 -50l-94 92c56 69 133 108 236 108
c157 0 244 -76 244 -205c0 -46 -26 -110 -77 -136z" />
    <glyph glyph-name="uni0418" unicode="&#x418;" horiz-adv-x="685" 
d="M449 0v283c1 0 18 133 18 133l-5 1l-67 -138l-170 -279h-169v708h180v-321c-1 0 -15 -106 -15 -106l4 -1l59 127l181 301h164v-708h-180z" />
    <glyph glyph-name="uni0419" unicode="&#x419;" horiz-adv-x="685" 
d="M338 766c-93 0 -181 59 -181 174h139c0 -25 18 -41 42 -41s42 16 42 41h139c0 -115 -88 -174 -181 -174zM449 0v283c1 0 18 133 18 133l-5 1l-67 -138l-170 -279h-169v708h180v-321c-1 0 -15 -106 -15 -106l4 -1l59 127l181 301h164v-708h-180z" />
    <glyph glyph-name="uni041A" unicode="&#x41a;" horiz-adv-x="640" 
d="M236 446l192 262h223l-280 -348l279 -360h-225l-183 253l-6 -8v-245h-180v708h180v-262z" />
    <glyph glyph-name="uni041B" unicode="&#x41b;" horiz-adv-x="709" 
d="M342 538l-12 -215c-9 -164 -82 -346 -313 -323v167c146 -8 135 147 146 304l17 237h473v-708h-180v538h-131z" />
    <glyph glyph-name="uni041C" unicode="&#x41c;" horiz-adv-x="769" 
d="M56 0v708h179l149 -346l150 346h179v-708h-180l1 204l11 143l-6 1l-93 -243h-123l-95 243l-5 -1l12 -143v-204h-179z" />
    <glyph glyph-name="uni041D" unicode="&#x41d;" horiz-adv-x="676" 
d="M236 267v-267h-180v708h180v-268h204v268h180v-708h-180v267h-204z" />
    <glyph glyph-name="uni041E" unicode="&#x41e;" horiz-adv-x="665" 
d="M39 233v242c0 163 146 243 293 243s294 -81 294 -243v-242c0 -162 -146 -243 -293 -243s-294 81 -294 243zM218 475v-242c0 -52 58 -77 115 -77s114 26 114 77v242c0 55 -59 80 -117 80c-56 0 -112 -28 -112 -80z" />
    <glyph glyph-name="uni041F" unicode="&#x41f;" horiz-adv-x="671" 
d="M236 538v-538h-180v708h559v-708h-180v538h-199z" />
    <glyph glyph-name="uni0420" unicode="&#x420;" horiz-adv-x="618" 
d="M56 0v708h283c173 0 259 -125 259 -250c0 -126 -87 -251 -258 -251h-105v-207h-179zM235 366h104c108 -1 108 176 0 175h-104v-175z" />
    <glyph glyph-name="uni0421" unicode="&#x421;" horiz-adv-x="582" 
d="M417 221l156 -72c-59 -115 -166 -159 -255 -159c-139 0 -279 81 -279 242v244c0 160 140 242 282 242c87 0 192 -37 249 -163l-146 -59c-48 88 -206 68 -206 -20v-244c0 -85 160 -109 199 -11z" />
    <glyph glyph-name="uni0422" unicode="&#x422;" horiz-adv-x="585" 
d="M571 539h-188v-539h-181v539h-188v170h557v-170z" />
    <glyph glyph-name="uni0423" unicode="&#x423;" horiz-adv-x="601" 
d="M246 554l48 -128h5l53 138l64 144h199l-320 -708h-193l104 229l-233 479h203z" />
    <glyph glyph-name="uni0424" unicode="&#x424;" horiz-adv-x="804" 
d="M317 0v58c-147 0 -291 66 -291 235v122c0 169 144 235 291 235v58h170v-58c147 0 291 -66 291 -235v-122c0 -169 -144 -235 -291 -235v-58h-170zM206 416v-124c0 -60 53 -72 111 -72v268c-58 0 -111 -12 -111 -72zM598 292v124c0 60 -53 72 -111 72v-268
c58 0 111 12 111 72z" />
    <glyph glyph-name="uni0425" unicode="&#x425;" horiz-adv-x="656" 
d="M327 466l124 242h208l-198 -355l198 -353h-208l-124 241l-121 -241h-209l199 353l-199 355h209z" />
    <glyph glyph-name="uni0427" unicode="&#x427;" horiz-adv-x="639" 
d="M403 0v237c-23 -20 -73 -40 -129 -40c-125 0 -242 82 -242 243v268h180v-268c0 -46 28 -72 77 -73c42 0 88 11 113 34l1 307h180v-708h-180z" />
    <glyph glyph-name="uni0426" unicode="&#x426;" horiz-adv-x="715" 
d="M56 0v708h180v-538h193v538h180v-538h86v-312h-170v142h-469z" />
    <glyph glyph-name="uni0428" unicode="&#x428;" horiz-adv-x="988" 
d="M56 708h180v-538h168v538h180v-538h168v538h180v-708h-876v708z" />
    <glyph glyph-name="uni0429" unicode="&#x429;" horiz-adv-x="1038" 
d="M752 708h180v-538h86v-312h-170v142h-792v708h180v-538h168v538h180v-538h168v538z" />
    <glyph glyph-name="uni042F" unicode="&#x42f;" horiz-adv-x="646" 
d="M590 0h-180v238h-29l-190 -238h-223l216 256c-80 28 -144 83 -144 219c4 149 104 233 268 233h282v-708zM410 538h-105c-54 0 -85 -28 -85 -77c0 -46 27 -82 85 -82h105v159z" />
    <glyph glyph-name="uni042C" unicode="&#x42c;" horiz-adv-x="618" 
d="M597 243c0 -139 -93 -243 -250 -243h-291v708h180v-241h106c192 0 255 -89 255 -224zM236 157h106c61 0 79 43 79 88c0 52 -30 80 -79 80h-106v-168z" />
    <glyph glyph-name="uni042A" unicode="&#x42a;" horiz-adv-x="714" 
d="M152 538h-135v170h315v-241h106c192 0 255 -89 255 -224c0 -139 -93 -243 -250 -243h-291v538zM332 157h106c61 0 79 43 79 88c0 52 -30 80 -79 80h-106v-168z" />
    <glyph glyph-name="uni042B" unicode="&#x42b;" horiz-adv-x="915" 
d="M597 243c0 -139 -93 -243 -250 -243h-291v708h180v-241h106c192 0 255 -89 255 -224zM859 708v-708h-179v708h179zM236 157h106c61 0 79 43 79 88c0 52 -30 80 -79 80h-106v-168z" />
    <glyph glyph-name="uni042D" unicode="&#x42d;" 
d="M369 233v50h-157v149h157v42c0 49 -49 77 -100 77c-42 0 -85 -18 -106 -57l-146 59c57 126 162 165 249 165c142 0 283 -84 283 -244v-241c0 -161 -141 -243 -280 -243c-89 0 -196 45 -255 160l156 72c18 -45 62 -62 104 -62c49 1 95 27 95 73z" />
    <glyph glyph-name="uni042E" unicode="&#x42e;" horiz-adv-x="975" 
d="M347 439v36c0 163 147 243 294 243s295 -81 295 -243v-242c0 -162 -147 -243 -294 -243s-295 81 -295 243v42h-112v-275h-180v708h180v-269h112zM527 468v-231c0 -51 57 -77 114 -77s115 25 115 77v231c0 54 -58 80 -115 80c-57 -1 -114 -28 -114 -80z" />
    <glyph glyph-name="uni0414.loclBGR" horiz-adv-x="721" 
d="M197 -142h-182v303h64l185 547h189l191 -547h62v-303h-182v142h-327v-142zM397 352l-35 156h-4l-31 -158l-53 -189h172z" />
    <glyph glyph-name="uni041B.loclBGR" horiz-adv-x="634" 
d="M320 508h-6l-43 -207l-84 -301h-192l238 708h165l244 -708h-192l-89 301z" />
    <glyph glyph-name="uni0430" unicode="&#x430;" horiz-adv-x="648" 
d="M404 708l253 -708h-192l-46 142h-189l-44 -142h-192l247 708h163zM270 301h106l-49 207h-5z" />
    <glyph glyph-name="uni0431" unicode="&#x431;" horiz-adv-x="616" 
d="M598 231c0 -141 -96 -231 -253 -231h-289v708h484v-150h-304v-110h104c197 0 258 -76 258 -217zM236 157h104c61 0 81 33 81 83s-27 78 -82 78h-103v-161z" />
    <glyph glyph-name="uni0432" unicode="&#x432;" horiz-adv-x="626" 
d="M570 492c-1 -32 -22 -89 -73 -115c97 -49 109 -140 100 -194c-18 -114 -95 -183 -252 -183h-289v708h284c135 0 234 -81 230 -216zM236 431h104c87 0 90 126 0 126h-104v-126zM236 157h104c108 0 106 145 0 145h-104v-145z" />
    <glyph glyph-name="uni0433" unicode="&#x433;" horiz-adv-x="511" 
d="M56 708h441v-170h-261v-538h-180v708z" />
    <glyph glyph-name="uni0434" unicode="&#x434;" horiz-adv-x="721" 
d="M197 -142h-182v303h64l185 547h189l191 -547h62v-303h-182v142h-327v-142zM397 352l-35 156h-4l-31 -158l-53 -189h172z" />
    <glyph glyph-name="uni0435" unicode="&#x435;" 
d="M237 540v-110h287v-155h-287v-106h312v-169h-493v708h493v-168h-312z" />
    <glyph glyph-name="uni0451" unicode="&#x451;" 
d="M104 834c0 48 37 85 84 85s84 -37 84 -85c0 -46 -37 -83 -84 -83s-84 37 -84 83zM345 834c0 48 35 85 84 85c48 0 85 -37 85 -85c0 -46 -37 -83 -85 -83c-49 0 -84 37 -84 83zM237 540v-110h287v-155h-287v-106h312v-169h-493v708h493v-168h-312z" />
    <glyph glyph-name="uni0436" unicode="&#x436;" horiz-adv-x="948" 
d="M384 0v260l-6 8l-163 -268h-223l252 360l-253 348h216l177 -265v265h180v-265l177 265h216l-253 -348l252 -360h-223l-163 268l-6 -8v-260h-180z" />
    <glyph glyph-name="uni0437" unicode="&#x437;" horiz-adv-x="569" 
d="M440 377c74 -37 101 -102 101 -165c0 -140 -105 -222 -284 -222c-110 0 -206 52 -259 139l114 89c40 -45 91 -71 135 -71c72 0 114 25 114 76s-34 81 -92 81h-105v123h101c53 0 85 27 85 74c0 40 -30 67 -90 67c-52 0 -106 -33 -129 -50l-94 92c56 69 133 108 236 108
c157 0 244 -76 244 -205c0 -46 -26 -110 -77 -136z" />
    <glyph glyph-name="uni0438" unicode="&#x438;" horiz-adv-x="685" 
d="M449 0v283c1 0 18 133 18 133l-5 1l-67 -138l-170 -279h-169v708h180v-321c-1 0 -15 -106 -15 -106l4 -1l59 127l181 301h164v-708h-180z" />
    <glyph glyph-name="uni0439" unicode="&#x439;" horiz-adv-x="685" 
d="M338 766c-93 0 -181 59 -181 174h139c0 -25 18 -41 42 -41s42 16 42 41h139c0 -115 -88 -174 -181 -174zM449 0v283c1 0 18 133 18 133l-5 1l-67 -138l-170 -279h-169v708h180v-321c-1 0 -15 -106 -15 -106l4 -1l59 127l181 301h164v-708h-180z" />
    <glyph glyph-name="uni043A" unicode="&#x43a;" horiz-adv-x="640" 
d="M236 446l192 262h223l-280 -348l279 -360h-225l-183 253l-6 -8v-245h-180v708h180v-262z" />
    <glyph glyph-name="uni043B" unicode="&#x43b;" horiz-adv-x="634" 
d="M320 508h-6l-43 -207l-84 -301h-192l238 708h165l244 -708h-192l-89 301z" />
    <glyph glyph-name="uni043C" unicode="&#x43c;" horiz-adv-x="769" 
d="M56 0v708h179l149 -346l150 346h179v-708h-180l1 204l11 143l-6 1l-93 -243h-123l-95 243l-5 -1l12 -143v-204h-179z" />
    <glyph glyph-name="uni043D" unicode="&#x43d;" horiz-adv-x="676" 
d="M236 267v-267h-180v708h180v-268h204v268h180v-708h-180v267h-204z" />
    <glyph glyph-name="uni043E" unicode="&#x43e;" horiz-adv-x="665" 
d="M39 233v242c0 163 146 243 293 243s294 -81 294 -243v-242c0 -162 -146 -243 -293 -243s-294 81 -294 243zM218 475v-242c0 -52 58 -77 115 -77s114 26 114 77v242c0 55 -59 80 -117 80c-56 0 -112 -28 -112 -80z" />
    <glyph glyph-name="uni043F" unicode="&#x43f;" horiz-adv-x="671" 
d="M236 538v-538h-180v708h559v-708h-180v538h-199z" />
    <glyph glyph-name="uni0440" unicode="&#x440;" horiz-adv-x="618" 
d="M56 0v708h283c173 0 259 -125 259 -250c0 -126 -87 -251 -258 -251h-105v-207h-179zM235 366h104c108 -1 108 176 0 175h-104v-175z" />
    <glyph glyph-name="uni0441" unicode="&#x441;" horiz-adv-x="582" 
d="M417 221l156 -72c-59 -115 -166 -159 -255 -159c-139 0 -279 81 -279 242v244c0 160 140 242 282 242c87 0 192 -37 249 -163l-146 -59c-48 88 -206 68 -206 -20v-244c0 -85 160 -109 199 -11z" />
    <glyph glyph-name="uni0442" unicode="&#x442;" horiz-adv-x="585" 
d="M571 539h-188v-539h-181v539h-188v170h557v-170z" />
    <glyph glyph-name="uni0443" unicode="&#x443;" horiz-adv-x="601" 
d="M246 554l48 -128h5l53 138l64 144h199l-320 -708h-193l104 229l-233 479h203z" />
    <glyph glyph-name="uni0444" unicode="&#x444;" horiz-adv-x="804" 
d="M317 0v58c-147 0 -291 66 -291 235v122c0 169 144 235 291 235v58h170v-58c147 0 291 -66 291 -235v-122c0 -169 -144 -235 -291 -235v-58h-170zM206 416v-124c0 -60 53 -72 111 -72v268c-58 0 -111 -12 -111 -72zM598 292v124c0 60 -53 72 -111 72v-268
c58 0 111 12 111 72z" />
    <glyph glyph-name="uni0445" unicode="&#x445;" horiz-adv-x="656" 
d="M327 466l124 242h208l-198 -355l198 -353h-208l-124 241l-121 -241h-209l199 353l-199 355h209z" />
    <glyph glyph-name="uni0447" unicode="&#x447;" horiz-adv-x="639" 
d="M403 0v237c-23 -20 -73 -40 -129 -40c-125 0 -242 82 -242 243v268h180v-268c0 -46 28 -72 77 -73c42 0 88 11 113 34l1 307h180v-708h-180z" />
    <glyph glyph-name="uni0446" unicode="&#x446;" horiz-adv-x="715" 
d="M56 0v708h180v-538h193v538h180v-538h86v-312h-170v142h-469z" />
    <glyph glyph-name="uni0448" unicode="&#x448;" horiz-adv-x="988" 
d="M56 708h180v-538h168v538h180v-538h168v538h180v-708h-876v708z" />
    <glyph glyph-name="uni0449" unicode="&#x449;" horiz-adv-x="1038" 
d="M752 708h180v-538h86v-312h-170v142h-792v708h180v-538h168v538h180v-538h168v538z" />
    <glyph glyph-name="uni044F" unicode="&#x44f;" horiz-adv-x="646" 
d="M590 0h-180v238h-29l-190 -238h-223l216 256c-80 28 -144 83 -144 219c4 149 104 233 268 233h282v-708zM410 538h-105c-54 0 -85 -28 -85 -77c0 -46 27 -82 85 -82h105v159z" />
    <glyph glyph-name="uni044C" unicode="&#x44c;" horiz-adv-x="618" 
d="M597 243c0 -139 -93 -243 -250 -243h-291v708h180v-241h106c192 0 255 -89 255 -224zM236 157h106c61 0 79 43 79 88c0 52 -30 80 -79 80h-106v-168z" />
    <glyph glyph-name="uni044A" unicode="&#x44a;" horiz-adv-x="714" 
d="M152 538h-135v170h315v-241h106c192 0 255 -89 255 -224c0 -139 -93 -243 -250 -243h-291v538zM332 157h106c61 0 79 43 79 88c0 52 -30 80 -79 80h-106v-168z" />
    <glyph glyph-name="uni044B" unicode="&#x44b;" horiz-adv-x="915" 
d="M597 243c0 -139 -93 -243 -250 -243h-291v708h180v-241h106c192 0 255 -89 255 -224zM859 708v-708h-179v708h179zM236 157h106c61 0 79 43 79 88c0 52 -30 80 -79 80h-106v-168z" />
    <glyph glyph-name="uni044D" unicode="&#x44d;" 
d="M369 233v50h-157v149h157v42c0 49 -49 77 -100 77c-42 0 -85 -18 -106 -57l-146 59c57 126 162 165 249 165c142 0 283 -84 283 -244v-241c0 -161 -141 -243 -280 -243c-89 0 -196 45 -255 160l156 72c18 -45 62 -62 104 -62c49 1 95 27 95 73z" />
    <glyph glyph-name="uni044E" unicode="&#x44e;" horiz-adv-x="975" 
d="M347 439v36c0 163 147 243 294 243s295 -81 295 -243v-242c0 -162 -147 -243 -294 -243s-295 81 -295 243v42h-112v-275h-180v708h180v-269h112zM527 468v-231c0 -51 57 -77 114 -77s115 25 115 77v231c0 54 -58 80 -115 80c-57 -1 -114 -28 -114 -80z" />
    <glyph glyph-name="uni0432.loclBGR" horiz-adv-x="626" 
d="M570 492c-1 -32 -22 -89 -73 -115c97 -49 109 -140 100 -194c-18 -114 -95 -183 -252 -183h-289v708h284c135 0 234 -81 230 -216zM236 431h104c87 0 90 126 0 126h-104v-126zM236 157h104c108 0 106 145 0 145h-104v-145z" />
    <glyph glyph-name="uni0433.loclBGR" horiz-adv-x="511" 
d="M56 708h441v-170h-261v-538h-180v708z" />
    <glyph glyph-name="uni0434.loclBGR" horiz-adv-x="721" 
d="M197 -142h-182v303h64l185 547h189l191 -547h62v-303h-182v142h-327v-142zM397 352l-35 156h-4l-31 -158l-53 -189h172z" />
    <glyph glyph-name="uni0436.loclBGR" horiz-adv-x="948" 
d="M384 0v260l-6 8l-163 -268h-223l252 360l-253 348h216l177 -265v265h180v-265l177 265h216l-253 -348l252 -360h-223l-163 268l-6 -8v-260h-180z" />
    <glyph glyph-name="uni0438.loclBGR" horiz-adv-x="685" 
d="M449 0v283c1 0 18 133 18 133l-5 1l-67 -138l-170 -279h-169v708h180v-321c-1 0 -15 -106 -15 -106l4 -1l59 127l181 301h164v-708h-180z" />
    <glyph glyph-name="uni0439.loclBGR" horiz-adv-x="685" 
d="M338 766c-93 0 -181 59 -181 174h139c0 -25 18 -41 42 -41s42 16 42 41h139c0 -115 -88 -174 -181 -174zM449 0v283c1 0 18 133 18 133l-5 1l-67 -138l-170 -279h-169v708h180v-321c-1 0 -15 -106 -15 -106l4 -1l59 127l181 301h164v-708h-180z" />
    <glyph glyph-name="uni043A.loclBGR" horiz-adv-x="640" 
d="M236 446l192 262h223l-280 -348l279 -360h-225l-183 253l-6 -8v-245h-180v708h180v-262z" />
    <glyph glyph-name="uni043B.loclBGR" horiz-adv-x="634" 
d="M320 508h-6l-43 -207l-84 -301h-192l238 708h165l244 -708h-192l-89 301z" />
    <glyph glyph-name="uni043F.loclBGR" horiz-adv-x="671" 
d="M236 538v-538h-180v708h559v-708h-180v538h-199z" />
    <glyph glyph-name="uni0442.loclBGR" horiz-adv-x="585" 
d="M571 539h-188v-539h-181v539h-188v170h557v-170z" />
    <glyph glyph-name="uni0446.loclBGR" horiz-adv-x="715" 
d="M56 0v708h180v-538h193v538h180v-538h86v-312h-170v142h-469z" />
    <glyph glyph-name="uni0448.loclBGR" horiz-adv-x="988" 
d="M56 708h180v-538h168v538h180v-538h168v538h180v-708h-876v708z" />
    <glyph glyph-name="uni0449.loclBGR" horiz-adv-x="1038" 
d="M752 708h180v-538h86v-312h-170v142h-792v708h180v-538h168v538h180v-538h168v538z" />
    <glyph glyph-name="uni044E.loclBGR" horiz-adv-x="975" 
d="M347 439v36c0 163 147 243 294 243s295 -81 295 -243v-242c0 -162 -147 -243 -294 -243s-295 81 -295 243v42h-112v-275h-180v708h180v-269h112zM527 468v-231c0 -51 57 -77 114 -77s115 25 115 77v231c0 54 -58 80 -115 80c-57 -1 -114 -28 -114 -80z" />
    <glyph glyph-name="Delta" unicode="&#x2206;" horiz-adv-x="585" 
d="M223 675h139l199 -567v-108h-537v107zM290 442l-73 -273h145z" />
    <glyph glyph-name="Omega" unicode="&#x2126;" horiz-adv-x="774" 
d="M414 0l-1 143c94 38 145 131 145 219c0 91 -54 176 -173 176c-112 0 -167 -89 -167 -184c0 -85 48 -175 140 -211v-143h-319v176h79c-49 51 -74 121 -74 198c0 225 170 336 341 336c173 0 347 -115 347 -332c0 -76 -28 -157 -76 -202h77v-176h-319z" />
    <glyph glyph-name="uni03A9" unicode="&#x3a9;" horiz-adv-x="776" 
d="M40 176h65c-40 52 -60 121 -60 198c0 225 170 336 341 336c173 0 347 -115 347 -332c0 -76 -22 -150 -63 -202h64v-176h-333v141c119 38 161 123 161 221c0 91 -57 176 -176 176c-112 0 -171 -89 -171 -184c0 -91 50 -181 157 -213v-141h-332v176z" />
    <glyph glyph-name="mu" unicode="&#xb5;" horiz-adv-x="528" 
d="M336 -1l-6 38c-34 -53 -85 -47 -112 -3v-206h-171v688h171v-310c0 -66 90 -68 90 -1v311h172l2 -518z" />
    <glyph glyph-name="uni03BC" unicode="&#x3bc;" horiz-adv-x="530" 
d="M337 -1l-6 38c-34 -53 -85 -47 -112 -3v-206h-171v688h171v-310c0 -66 90 -68 90 -1v311h172l2 -518z" />
    <glyph glyph-name="pi" unicode="&#x3c0;" horiz-adv-x="575" 
d="M531 130l1 -135c-168 -17 -212 74 -212 174v199h-51v-368h-168v353l-63 -14l-33 126l19 17c34 22 69 42 133 42h389l-16 -156h-40v-196c0 -11 3 -43 41 -42z" />
    <glyph glyph-name="zero" unicode="0" horiz-adv-x="596" 
d="M298 -10c-120 0 -256 67 -256 217v293c0 151 136 218 256 218c121 0 256 -67 256 -218v-293c0 -150 -135 -217 -256 -217zM298 561c-42 0 -86 -24 -86 -66v-290c0 -41 43 -63 86 -63c41 0 86 22 86 63v290c0 43 -46 66 -86 66z" />
    <glyph glyph-name="one" unicode="1" horiz-adv-x="374" 
d="M323 0h-161v475l-68 -47l-94 82l188 198h135v-708z" />
    <glyph glyph-name="two" unicode="2" horiz-adv-x="558" 
d="M165 484l-134 73c58 111 154 161 251 161c156 0 237 -107 237 -218c0 -66 -24 -138 -88 -198l-156 -148l83 17h160v-170h-456l-45 93l288 324c95 107 -62 209 -140 66z" />
    <glyph glyph-name="three" unicode="3" horiz-adv-x="540" 
d="M16 118l116 107c26 -42 72 -60 114 -60c48 0 89 23 89 61c0 36 -26 68 -77 68h-110v143h106c46 0 62 57 42 87c-32 50 -119 37 -163 -13l-104 92c58 72 143 115 223 115c87 0 175 -30 213 -124c28 -70 22 -171 -50 -216c72 -37 95 -111 95 -166
c0 -138 -127 -222 -257 -222c-91 0 -184 39 -237 128z" />
    <glyph glyph-name="four" unicode="4" horiz-adv-x="574" 
d="M543 299v-145h-66v-154h-171v154h-249l-57 105l330 449h147v-409h66zM194 297h125l2 181z" />
    <glyph glyph-name="five" unicode="5" horiz-adv-x="541" 
d="M28 121l127 100c67 -82 183 -55 187 28c4 72 -39 105 -93 105c-41 0 -83 -16 -115 -59h-82v413h420v-157h-277v-80c172 63 322 -47 322 -218c0 -131 -82 -263 -267 -263c-80 0 -165 38 -222 131z" />
    <glyph glyph-name="six" unicode="6" horiz-adv-x="584" 
d="M528 587l-125 -72c-22 35 -61 50 -98 50c-48 0 -93 -26 -93 -71v-73c136 97 349 10 349 -166v-42c0 -146 -126 -223 -258 -223s-262 76 -262 223v282c0 142 133 223 264 223c93 0 180 -42 223 -131zM390 207v53c0 75 -178 74 -178 0v-53c0 -80 178 -81 178 0z" />
    <glyph glyph-name="seven" unicode="7" horiz-adv-x="529" 
d="M22 708h457l48 -96l-273 -612h-192l230 538h-270v170z" />
    <glyph glyph-name="eight" unicode="8" horiz-adv-x="600" 
d="M308 -10h-14c-162 0 -264 80 -264 223c0 56 32 118 95 165c-47 31 -62 85 -62 127c0 165 141 213 231 213h14c117 0 231 -62 231 -220c0 -31 -20 -91 -61 -119c65 -33 93 -107 92 -156c-3 -145 -87 -233 -262 -233zM309 572h-15c-92 -2 -91 -140 6 -140
c110 0 102 134 9 140zM293 157h17c120 0 105 161 3 152h-23c-99 3 -115 -149 3 -152z" />
    <glyph glyph-name="nine" unicode="9" 
d="M44 125l127 84c26 -43 71 -59 112 -59c49 0 93 28 93 68v73c-136 -99 -349 -10 -349 166v42c0 146 126 219 258 219s260 -72 262 -219v-282c0 -145 -131 -227 -262 -227c-98 0 -196 42 -241 135zM198 505v-53c0 -75 178 -74 178 0v53c0 74 -178 75 -178 0z" />
    <glyph glyph-name="fraction" unicode="&#x2044;" horiz-adv-x="583" 
d="M589 685l-454 -762l-141 87l454 761z" />
    <glyph glyph-name="onehalf" unicode="&#xbd;" horiz-adv-x="857" 
d="M666 649l-423 -694l-115 71l422 693zM254 272v441h-107l-126 -137l50 -70l49 28v-262h134zM507 356l91 -76c38 65 116 32 57 -33l-153 -170l28 -74h291v127h-112l59 54c39 33 51 69 51 109c0 78 -62 147 -160 147c-60 0 -113 -23 -152 -84z" />
    <glyph glyph-name="onequarter" unicode="&#xbc;" horiz-adv-x="830" 
d="M659 649l-422 -694l-117 70l422 694zM254 272v441h-107l-126 -137l50 -70l49 28v-262h134zM761 468h-113l-240 -291l58 -90h161v-87h134v87h36v117h-36v264zM639 200h-84l82 94l4 -1z" />
    <glyph glyph-name="threequarters" unicode="&#xbe;" horiz-adv-x="860" 
d="M717 649l-422 -694l-113 71l422 693zM140 438h54c17 2 27 -14 27 -26c0 -43 -79 -50 -103 -6l-95 -58c54 -111 218 -128 300 -38c51 56 57 150 -30 189c101 93 4 218 -116 212c-55 -3 -88 -28 -130 -72l80 -66c10 13 31 25 53 26c46 2 44 -58 13 -58h-53v-103zM690 452
l-232 -281l56 -87h163v-84h118v84h35v113h-35v255h-105zM600 193l79 91l4 -1l-2 -90h-81z" />
    <glyph glyph-name="onesuperior" unicode="&#xb9;" horiz-adv-x="290" 
d="M57 500l-50 70l126 137h107v-441h-134v262z" />
    <glyph glyph-name="twosuperior" unicode="&#xb2;" horiz-adv-x="398" 
d="M126 532l-92 79c40 63 93 87 154 87c99 0 162 -71 162 -152c0 -41 -12 -79 -52 -113l-59 -56h119v-131h-301l-28 76l155 176c60 68 -19 102 -58 34z" />
    <glyph glyph-name="threesuperior" unicode="&#xb3;" horiz-adv-x="373" 
d="M131 532h50c30 0 32 58 -12 56c-21 -1 -41 -12 -51 -25l-76 64c40 43 71 67 124 70c114 6 207 -115 111 -206c83 -38 77 -129 28 -184c-78 -87 -234 -70 -286 37l91 57c23 -43 98 -36 98 6c0 11 -10 27 -26 25h-51v100z" />
    <glyph glyph-name="asterisk" unicode="*" horiz-adv-x="477" 
d="M406 649l47 -159l-112 -14l81 -78l-129 -99l-54 101l-52 -101l-134 97l81 84l-110 13l46 158l102 -48l-15 107h164l-19 -106z" />
    <glyph glyph-name="backslash" unicode="\" horiz-adv-x="503" 
d="M325 -58l-306 769l161 56l304 -771z" />
    <glyph glyph-name="bullet" unicode="&#x2022;" horiz-adv-x="420" 
d="M48 331c0 89 72 162 163 162c89 0 161 -73 161 -162c0 -90 -72 -163 -161 -163c-91 0 -163 73 -163 163z" />
    <glyph glyph-name="colon" unicode=":" horiz-adv-x="277" 
d="M39 393c0 55 45 98 100 98s99 -43 99 -98c0 -56 -44 -101 -99 -101s-100 45 -100 101zM39 106c0 58 45 100 100 100s99 -42 99 -100c0 -55 -44 -100 -99 -100s-100 45 -100 100z" />
    <glyph glyph-name="comma" unicode="," horiz-adv-x="287" 
d="M251 106l-100 -255h-173l85 255h188z" />
    <glyph glyph-name="ellipsis" unicode="&#x2026;" horiz-adv-x="786" 
d="M29 95c0 55 44 99 101 99c55 0 99 -44 99 -99c0 -56 -44 -101 -99 -101c-57 0 -101 45 -101 101zM294 95c0 55 43 99 98 99c57 0 101 -44 101 -99c0 -56 -44 -101 -101 -101c-55 0 -98 45 -98 101zM557 95c0 55 43 99 99 99c58 0 100 -44 100 -99
c0 -56 -42 -101 -100 -101c-56 0 -99 45 -99 101z" />
    <glyph glyph-name="exclam" unicode="!" horiz-adv-x="291" 
d="M53 220l-10 492h204l-10 -492h-184zM47 89c0 56 44 101 99 101c56 0 101 -45 101 -101c0 -55 -45 -99 -101 -99c-55 0 -99 44 -99 99z" />
    <glyph glyph-name="exclamdown" unicode="&#xa1;" horiz-adv-x="268" 
d="M233 416c0 -58 -43 -100 -100 -100c-58 0 -98 42 -98 100c0 55 40 98 98 98c57 0 100 -43 100 -98zM219 291v-475h-171v475h171z" />
    <glyph glyph-name="numbersign" unicode="#" horiz-adv-x="647" 
d="M503 315h66l-43 -146h-67l-50 -170h-158l49 170h-42l-49 -170h-163l50 170h-74l43 146h74l9 33h-74l45 152h74l47 161h158l-47 -161h42l47 161h165l-48 -161h66l-44 -152h-67zM308 361l-17 -59h59l16 59h-58z" />
    <glyph glyph-name="period" unicode="." horiz-adv-x="257" 
d="M29 95c0 55 44 99 99 99s100 -44 100 -99c0 -56 -45 -101 -100 -101s-99 45 -99 101z" />
    <glyph glyph-name="periodcentered" unicode="&#xb7;" horiz-adv-x="264" 
d="M33 303c0 56 41 101 100 101c57 0 98 -45 98 -101c0 -55 -41 -98 -98 -98c-59 0 -100 43 -100 98z" />
    <glyph glyph-name="question" unicode="?" horiz-adv-x="491" 
d="M123 497l-102 87c122 232 444 138 444 -90c0 -87 -53 -180 -172 -197l-10 -117h-150l-10 228c85 -36 166 2 166 75c0 72 -125 90 -166 14zM117 65c0 53 40 90 91 90c50 0 90 -37 90 -90c0 -51 -40 -91 -90 -91c-51 0 -91 40 -91 91z" />
    <glyph glyph-name="questiondown" unicode="&#xbf;" horiz-adv-x="487" 
d="M372 435c0 -53 -40 -90 -91 -90c-50 0 -90 37 -90 90c0 51 40 91 90 91c51 0 91 -40 91 -91zM468 -84l-102 87c-41 -76 -166 -58 -166 14c0 73 81 111 166 75l-10 224h-150l-10 -113c-119 -17 -172 -110 -172 -197c0 -228 322 -322 444 -90z" />
    <glyph glyph-name="quotedbl" unicode="&#x22;" horiz-adv-x="462" 
d="M220 709l-21 -290h-152v290h173zM425 709l-20 -290h-153v290h173z" />
    <glyph glyph-name="quotesingle" unicode="'" horiz-adv-x="257" 
d="M218 708l-15 -290h-155v290h170z" />
    <glyph glyph-name="semicolon" unicode=";" horiz-adv-x="293" 
d="M45 382c0 55 41 98 100 98c57 0 98 -43 98 -98c0 -57 -41 -101 -98 -101c-59 0 -100 44 -100 101zM255 127l-92 -255h-156l61 255h187z" />
    <glyph glyph-name="slash" unicode="/" horiz-adv-x="490" 
d="M471 709l-294 -779l-158 57l295 777z" />
    <glyph glyph-name="underscore" unicode="_" horiz-adv-x="593" 
d="M548 34v-169h-504v169h504z" />
    <glyph glyph-name="braceleft" unicode="{" horiz-adv-x="351" 
d="M254 547v-129c0 -42 -28 -101 -72 -118c47 -17 72 -70 72 -119v-118h59v-163h-90c-111 0 -140 59 -140 154v111c0 28 -12 53 -54 53v163c42 0 54 25 54 52v122c0 94 35 155 148 155h82v-163h-59z" />
    <glyph glyph-name="braceright" unicode="}" horiz-adv-x="344" 
d="M39 708h69c137 0 152 -61 152 -155v-120c0 -27 11 -52 55 -52v-163c-44 0 -55 -25 -55 -53v-119c0 -95 -27 -154 -154 -154h-67v163h51v126c-3 51 36 105 77 120c-38 18 -81 68 -77 117v127h-51v163z" />
    <glyph glyph-name="bracketleft" unicode="[" horiz-adv-x="328" 
d="M221 544v-479h69v-165h-240v810h240v-166h-69z" />
    <glyph glyph-name="bracketright" unicode="]" horiz-adv-x="328" 
d="M105 63v484h-67v163h240v-810h-240v163h67z" />
    <glyph glyph-name="parenleft" unicode="(" horiz-adv-x="322" 
d="M190 795l118 -77c-164 -245 -159 -506 3 -755l-127 -85c-103 145 -155 316 -155 469c0 155 53 326 161 448z" />
    <glyph glyph-name="parenright" unicode=")" horiz-adv-x="316" 
d="M12 707l114 76c108 -122 161 -281 161 -436c0 -153 -51 -322 -155 -467l-120 81c154 247 166 516 0 746z" />
    <glyph glyph-name="emdash" unicode="&#x2014;" horiz-adv-x="868" 
d="M822 374v-169h-776v169h776z" />
    <glyph glyph-name="endash" unicode="&#x2013;" horiz-adv-x="571" 
d="M525 374v-169h-479v169h479z" />
    <glyph glyph-name="hyphen" unicode="-" horiz-adv-x="404" 
d="M358 375v-170h-312v170h312z" />
    <glyph glyph-name="uni00AD" unicode="&#xad;" horiz-adv-x="407" 
d="M360 332v-171h-313v171h313z" />
    <glyph glyph-name="guillemotleft" unicode="&#xab;" horiz-adv-x="613" 
d="M179 524l145 -86l-103 -151l104 -153l-147 -86l-159 239zM437 524l145 -86l-104 -153l106 -150l-147 -87l-160 239z" />
    <glyph glyph-name="guillemotright" unicode="&#xbb;" horiz-adv-x="603" 
d="M177 49l-148 85l105 153l-103 151l144 87l161 -238zM425 48l-145 87l103 152l-104 152l147 85l159 -237z" />
    <glyph glyph-name="guilsinglleft" unicode="&#x2039;" horiz-adv-x="352" 
d="M179 525l144 -87l-103 -150c31 -48 74 -110 103 -155l-145 -85l-159 239z" />
    <glyph glyph-name="guilsinglright" unicode="&#x203a;" horiz-adv-x="352" 
d="M176 49l-148 84l103 154l-102 151l145 86l159 -237z" />
    <glyph glyph-name="quotedblbase" unicode="&#x201e;" horiz-adv-x="518" 
d="M259 104l-117 -208h-152l74 208h195zM483 104l-117 -208h-152l73 208h196z" />
    <glyph glyph-name="quotedblleft" unicode="&#x201c;" horiz-adv-x="544" 
d="M23 492l113 217h157l-68 -217h-202zM257 492l113 217h157l-68 -217h-202z" />
    <glyph glyph-name="quotedblright" unicode="&#x201d;" horiz-adv-x="530" 
d="M289 706l-103 -206h-157l58 206h202zM520 706l-103 -206h-157l58 206h202z" />
    <glyph glyph-name="quoteleft" unicode="&#x2018;" horiz-adv-x="310" 
d="M23 492l113 217h157l-68 -217h-202z" />
    <glyph glyph-name="quoteright" unicode="&#x2019;" horiz-adv-x="299" 
d="M289 706l-103 -206h-157l58 206h202z" />
    <glyph glyph-name="quotesinglbase" unicode="&#x201a;" horiz-adv-x="295" 
d="M260 115l-117 -219h-152l74 219h195z" />
    <glyph glyph-name="space" unicode=" " horiz-adv-x="182" 
 />
    <glyph glyph-name="uni00A0" unicode="&#xa0;" horiz-adv-x="182" 
 />
    <glyph glyph-name="florin" unicode="&#x192;" horiz-adv-x="510" 
d="M11 -83l41 123c34 -17 58 -10 65 29l45 235h-71v146h98l21 96c23 140 165 225 291 124l-56 -108c-34 14 -56 6 -64 -34l-18 -78h70v-146h-96l-49 -269c-26 -136 -156 -184 -277 -118z" />
    <glyph glyph-name="Euro" unicode="&#x20ac;" horiz-adv-x="645" 
d="M87 470v4c0 160 137 244 279 244c87 0 192 -39 249 -165l-146 -59c-48 88 -206 68 -206 -20v-4h178l-23 -108h-155v-31h178l-23 -108h-154c12 -77 160 -95 198 -1l156 -72c-59 -115 -166 -160 -255 -160c-136 0 -270 78 -276 233h-62l22 108h40v31h-62l22 108h40z" />
    <glyph glyph-name="cent" unicode="&#xa2;" horiz-adv-x="478" 
d="M318 587v-73c53 -16 104 -54 126 -132l-142 -44c-13 63 -97 55 -97 0v-158c0 -55 84 -62 103 -1l146 -33c-26 -82 -81 -124 -136 -142v-73h-128v70c-82 20 -150 80 -150 182v151c0 102 68 162 150 182v71h128z" />
    <glyph glyph-name="currency" unicode="&#xa4;" horiz-adv-x="616" 
d="M34 171l46 49c-16 33 -24 71 -24 111c0 39 10 78 24 111l-48 47l114 122l53 -53c33 15 68 23 108 23c38 0 76 -10 109 -25l54 54l113 -121l-49 -48c16 -33 25 -71 25 -110c0 -41 -8 -77 -24 -112l48 -46l-113 -121l-53 53c-35 -18 -67 -24 -110 -24c-36 0 -74 7 -108 23
c-16 -16 -54 -51 -54 -51zM208 330c0 -55 45 -99 99 -99c53 0 98 44 98 99c0 57 -45 101 -98 101c-54 0 -99 -44 -99 -101z" />
    <glyph glyph-name="dollar" unicode="$" horiz-adv-x="570" 
d="M225 -65v64c-82 3 -152 54 -201 139l128 88c27 -37 47 -45 73 -49v97c-98 23 -191 80 -189 221c6 111 89 180 189 202v59h129v-58c70 -9 120 -39 173 -119l-120 -76c-11 19 -31 32 -53 36v-112c107 -26 197 -76 190 -229c-9 -108 -93 -174 -190 -198v-65h-129zM194 494
v-1c-1 -28 12 -50 38 -59v114c-24 -13 -38 -34 -38 -54zM386 217v1c1 28 -12 50 -38 59v-114c24 13 38 34 38 54z" />
    <glyph glyph-name="sterling" unicode="&#xa3;" horiz-adv-x="530" 
d="M501 627l-99 -95c-41 45 -116 24 -116 -39v-70h168v-153h-168v-112h206v-158h-455v158h78v112h-78v153h78v75c0 95 50 212 215 212c51 0 120 -23 171 -83z" />
    <glyph glyph-name="yen" unicode="&#xa5;" horiz-adv-x="712" 
d="M563 361l-23 -108h-95v-31h118l-23 -108h-95v-114h-179v114h-109l22 108h87v31h-109l22 108h40l-200 347h208l128 -270l128 270h210l-201 -347h71z" />
    <glyph glyph-name="approxequal" unicode="&#x2248;" horiz-adv-x="497" 
d="M373 496l90 -74c-43 -79 -92 -109 -146 -109c-33 0 -68 11 -104 27c-42 21 -73 15 -101 -16l-82 75c43 70 95 109 143 113c70 11 143 -100 200 -16zM369 298l97 -72c-44 -80 -95 -113 -150 -113c-34 0 -69 12 -102 32c-16 10 -28 17 -39 17c-10 0 -24 -12 -50 -39l-91 78
c80 129 123 133 230 90v1c52 -18 51 -26 105 6z" />
    <glyph glyph-name="asciitilde" unicode="~" horiz-adv-x="489" 
d="M362 391l102 -85c-39 -67 -91 -123 -161 -123c-77 0 -114 101 -167 12l-111 93c41 60 91 114 156 114c87 0 122 -118 181 -11z" />
    <glyph glyph-name="divide" unicode="&#xf7;" horiz-adv-x="509" 
d="M28 374h454v-152h-454v152zM163 98c0 53 41 90 94 90s95 -37 95 -90s-42 -91 -95 -91s-94 38 -94 91zM163 499c0 53 41 90 94 90s95 -37 95 -90s-42 -91 -95 -91s-94 38 -94 91z" />
    <glyph glyph-name="equal" unicode="=" horiz-adv-x="528" 
d="M481 474v-155h-434v155h434zM481 271v-156h-434v156h434z" />
    <glyph glyph-name="greater" unicode="&#x3e;" horiz-adv-x="445" 
d="M420 347v-109l-367 -232v199l169 87l-169 91v199z" />
    <glyph glyph-name="greaterequal" unicode="&#x2265;" horiz-adv-x="489" 
d="M449 449v-104l-309 -162h313v-165h-412v165h16v142l115 58l29 14l-144 75v185z" />
    <glyph glyph-name="infinity" unicode="&#x221e;" horiz-adv-x="671" 
d="M643 285v-1c0 -107 -86 -178 -176 -178c-54 0 -99 20 -131 61c-29 -32 -74 -61 -135 -61c-96 0 -172 76 -172 175c0 104 74 180 177 180c56 0 100 -27 133 -67c32 38 78 69 134 67c101 -4 170 -73 170 -176zM205 324c-63 0 -63 -81 -1 -81c15 0 36 14 62 41
c-23 23 -46 40 -61 40zM469 324c-15 0 -38 -17 -61 -40c26 -27 47 -41 62 -41c62 0 62 81 -1 81z" />
    <glyph glyph-name="integral" unicode="&#x222b;" horiz-adv-x="383" 
d="M381 742l-34 -98c-32 18 -64 9 -65 -45l5 -546c0 -116 -75 -174 -160 -174c-38 0 -81 14 -127 43l43 106c33 -24 68 -14 68 25c0 61 -2 171 -9 550c0 118 74 180 158 180c36 0 79 -10 121 -41z" />
    <glyph glyph-name="less" unicode="&#x3c;" horiz-adv-x="445" 
d="M391 383l-161 -91c53 -28 112 -60 161 -87v-199l-366 232v109l366 235v-199z" />
    <glyph glyph-name="lessequal" unicode="&#x2264;" horiz-adv-x="489" 
d="M432 477l-145 -77c6 -4 22 -11 145 -72v-148h16v-167h-412v167h325l-321 168v105l392 207v-183z" />
    <glyph glyph-name="logicalnot" unicode="&#xac;" horiz-adv-x="577" 
d="M40 260v169h487v-301h-168v132h-319z" />
    <glyph glyph-name="minus" unicode="&#x2212;" horiz-adv-x="605" 
d="M558 379v-168h-511v168h511z" />
    <glyph glyph-name="multiply" unicode="&#xd7;" horiz-adv-x="536" 
d="M268 412l122 122l119 -122l-119 -119l119 -120l-120 -120l-120 120c-39 -40 -86 -85 -123 -123l-117 121l120 120l-124 125l120 119z" />
    <glyph glyph-name="notequal" unicode="&#x2260;" horiz-adv-x="528" 
d="M38 114v142h139l22 42h-161v142h236l50 96l121 -55l-22 -41h66v-142h-141l-22 -42h163v-142h-238l-49 -94l-121 51l22 43h-65z" />
    <glyph glyph-name="partialdiff" unicode="&#x2202;" horiz-adv-x="506" 
d="M133 515l-76 114c54 35 113 62 171 62c121 0 246 -96 246 -332c0 -212 -90 -365 -252 -365c-133 0 -194 109 -197 226c-4 153 108 252 215 252c22 0 43 -4 65 -12c-5 96 -101 104 -172 55zM223 153h8c20 -1 41 25 56 57c12 26 18 61 19 96c-122 91 -153 -153 -83 -153z
" />
    <glyph glyph-name="percent" unicode="%" horiz-adv-x="740" 
d="M55 7l492 760l129 -86l-492 -757zM325 541c0 -110 -64 -177 -151 -177c-94 0 -148 62 -148 179c0 107 62 175 148 175c97 0 151 -64 151 -177zM206 541c0 42 -13 60 -33 60s-35 -18 -35 -59c0 -43 15 -59 35 -59c21 0 33 19 33 58zM715 171c0 -110 -64 -177 -151 -177
c-94 0 -148 62 -148 179c0 107 62 175 148 175c97 0 151 -64 151 -177zM596 171c0 42 -13 60 -33 60s-35 -18 -35 -59c0 -43 15 -59 35 -59c21 0 33 19 33 58z" />
    <glyph glyph-name="perthousand" unicode="&#x2030;" horiz-adv-x="1072" 
d="M55 7l492 760l129 -86l-492 -757zM325 541c0 -110 -64 -177 -151 -177c-94 0 -148 62 -148 179c0 107 62 175 148 175c97 0 151 -64 151 -177zM206 541c0 42 -13 60 -33 60s-35 -18 -35 -59c0 -43 15 -59 35 -59c21 0 33 19 33 58zM715 171c0 -110 -64 -177 -151 -177
c-94 0 -148 62 -148 179c0 107 62 175 148 175c97 0 151 -64 151 -177zM1049 171c0 -110 -64 -177 -151 -177c-94 0 -148 62 -148 179c0 107 62 175 148 175c97 0 151 -64 151 -177zM596 171c0 42 -13 60 -33 60s-35 -18 -35 -59c0 -43 15 -59 35 -59c21 0 33 19 33 58z
M930 171c0 42 -13 60 -33 60s-35 -18 -35 -59c0 -43 15 -59 35 -59c21 0 33 19 33 58z" />
    <glyph glyph-name="plus" unicode="+" horiz-adv-x="566" 
d="M202 406v170h169v-170h168v-170h-168v-171h-169v171h-175v170h175z" />
    <glyph glyph-name="plusminus" unicode="&#xb1;" horiz-adv-x="539" 
d="M183 520v132h170v-132h141v-170h-141v-131h-170v131h-138v170h138zM495 181v-168h-451v168h451z" />
    <glyph glyph-name="product" unicode="&#x220f;" horiz-adv-x="632" 
d="M527 -53h-169v594h-85v-594h-170v594h-76v168h579v-168h-79v-594z" />
    <glyph glyph-name="radical" unicode="&#x221a;" horiz-adv-x="541" 
d="M215 -116l-108 340l-56 -15l-53 145l217 83l56 -283l94 605h174l-184 -875h-140z" />
    <glyph glyph-name="summation" unicode="&#x2211;" horiz-adv-x="547" 
d="M27 52l189 260c-58 86 -121 190 -179 275v119h468v-147h-242c51 -77 107 -173 158 -247l-166 -223h262v-154h-490v117z" />
    <glyph glyph-name="uni2215" unicode="&#x2215;" horiz-adv-x="563" 
d="M575 702l-445 -751l-141 87l445 750z" />
    <glyph glyph-name="uni2219" unicode="&#x2219;" horiz-adv-x="264" 
d="M33 303c0 56 41 101 100 101c57 0 98 -45 98 -101c0 -55 -41 -98 -98 -98c-59 0 -100 43 -100 98z" />
    <glyph glyph-name="lozenge" unicode="&#x25ca;" horiz-adv-x="556" 
d="M216 -24l-196 355l201 357h117l198 -355l-200 -357h-120zM193 331l87 -156l83 153l-86 160z" />
    <glyph glyph-name="uni2113" unicode="&#x2113;" horiz-adv-x="450" 
d="M340 173l87 -100c-93 -114 -278 -107 -315 38l-37 -28l-59 136l81 69v185c0 189 86 242 167 242c102 0 150 -80 150 -182c0 -110 -61 -215 -151 -312v-7c0 -66 37 -78 77 -41zM235 401v-5c21 44 41 94 41 133c0 109 -72 35 -41 -128z" />
    <glyph glyph-name="ampersand" unicode="&#x26;" horiz-adv-x="682" 
d="M522 349l100 -128l-66 -54l133 -166h-210l-48 57c-145 -128 -402 -53 -402 167c0 86 39 138 106 178c-122 128 -16 316 158 311c100 -3 192 -73 192 -184c0 -81 -36 -128 -86 -163l59 -73zM290 573c-25 0 -47 -20 -47 -46c0 -18 18 -39 37 -62c31 21 49 39 49 65
c0 23 -17 43 -39 43zM327 178l-87 102c-44 -23 -49 -72 -27 -102c25 -35 82 -37 114 0z" />
    <glyph glyph-name="asciicircum" unicode="^" horiz-adv-x="652" 
d="M371 707l254 -303h-207l-97 115l-95 -115h-200l247 303h98z" />
    <glyph glyph-name="at" unicode="@" horiz-adv-x="759" 
d="M500 538l72 -18c-34 48 -112 70 -168 70c-161 0 -249 -144 -249 -275c0 -157 123 -258 293 -207l27 -96c-45 -14 -87 -21 -125 -21c-177 0 -326 139 -316 350c13 179 149 367 361 367c35 0 70 -4 105 -13c86 -25 168 -86 204 -155c60 -117 31 -285 -67 -370
c-31 -28 -83 -51 -133 -51c-27 0 -49 4 -73 21c-21 -13 -45 -19 -71 -19c-106 0 -177 84 -177 193c0 125 86 243 194 243c36 0 68 -10 105 -40zM589 495l-47 -256c79 35 93 173 56 238zM375 244c16 0 34 5 45 16l32 147c-98 104 -179 -70 -117 -147c11 -12 25 -16 40 -16z
" />
    <glyph glyph-name="bar" unicode="|" horiz-adv-x="269" 
d="M219 -135h-169v859h169v-859z" />
    <glyph glyph-name="brokenbar" unicode="&#xa6;" horiz-adv-x="274" 
d="M222 313h-170v347h170v-347zM222 -110h-170v377h170v-377z" />
    <glyph glyph-name="copyright" unicode="&#xa9;" horiz-adv-x="778" 
d="M30 351c0 197 162 359 360 359c197 0 358 -162 358 -359c0 -198 -161 -359 -358 -359c-198 0 -360 161 -360 359zM133 351c0 -142 114 -257 257 -257c141 0 255 115 255 257c0 143 -114 256 -255 256c-143 0 -257 -113 -257 -256zM198 404v-111c0 -113 97 -166 192 -166
c76 0 165 34 191 127l-96 36c-26 -91 -173 -77 -183 2v113c10 79 157 93 183 2l94 36c-26 93 -113 127 -189 127c-95 0 -192 -53 -192 -166z" />
    <glyph glyph-name="dagger" unicode="&#x2020;" horiz-adv-x="511" 
d="M25 348v170h145v190h171v-190h145v-170h-145v-444h-171v444h-145z" />
    <glyph glyph-name="daggerdbl" unicode="&#x2021;" horiz-adv-x="547" 
d="M43 69v166h145v141h-145v165h145v167h171v-167h145v-165h-145v-141h145v-166h-145v-165h-171v165h-145z" />
    <glyph glyph-name="degree" unicode="&#xb0;" horiz-adv-x="377" 
d="M189 392c-91 0 -165 74 -165 165c0 92 74 164 165 164c90 0 164 -72 164 -164c0 -90 -75 -165 -164 -165zM189 507c29 0 50 21 50 48s-21 52 -50 52s-50 -25 -50 -52s21 -48 50 -48z" />
    <glyph glyph-name="estimated" unicode="&#x212e;" horiz-adv-x="798" 
d="M271 260v-31c0 -18 1 -26 1 -46c35 -31 81 -50 130 -50c62 0 148 22 197 93l167 -1c-99 -170 -246 -232 -365 -232c-203 0 -370 150 -370 338c0 187 167 340 370 340c206 0 372 -153 372 -340v-71h-502zM533 401v76c-37 31 -82 51 -131 51c-48 0 -96 -20 -131 -51v-76
h262z" />
    <glyph glyph-name="paragraph" unicode="&#xb6;" horiz-adv-x="661" 
d="M228 -83v301c-135 18 -205 127 -205 236c0 120 81 239 245 239h336v-776h-168v614h-40v-614h-168z" />
    <glyph glyph-name="registered" unicode="&#xae;" horiz-adv-x="778" 
d="M30 351c0 197 162 359 360 359c197 0 358 -162 358 -359c0 -198 -161 -359 -358 -359c-198 0 -360 161 -360 359zM137 351c0 -140 114 -255 255 -255c139 0 253 115 253 255c0 141 -114 254 -253 254c-141 0 -255 -113 -255 -254zM244 169v358h162
c161 0 178 -189 65 -234l86 -124h-116l-78 117h-21v-117h-98zM342 366h61c53 0 51 76 -1 76h-60v-76z" />
    <glyph glyph-name="section" unicode="&#xa7;" horiz-adv-x="475" 
d="M36 37l117 78c38 -55 114 -49 114 -10c0 60 -235 81 -235 226c0 45 16 82 50 106c-21 25 -32 59 -32 87c0 117 98 185 198 185c62 0 117 -28 169 -106l-118 -71c-28 46 -78 27 -78 -8c0 -68 223 -58 223 -219c0 -38 -17 -75 -48 -100c28 -35 38 -71 38 -106
c0 -97 -91 -181 -201 -181c-71 0 -148 40 -197 119zM209 305l80 -38c33 35 -3 66 -94 103c-35 -19 -21 -51 14 -65z" />
    <glyph glyph-name="trademark" unicode="&#x2122;" horiz-adv-x="863" 
d="M117 289v258h-88v162h343v-162h-90v-258h-165zM401 291v418h137l69 -132l71 132h133v-418h-149l3 119l-42 -73h-25l-45 74l2 -120h-154z" />
    <glyph glyph-name="at.001" horiz-adv-x="750" 
d="M469 538l72 -18c-34 48 -112 70 -168 70c-161 0 -249 -144 -249 -275c0 -157 123 -258 293 -207l27 -96c-45 -14 -87 -21 -125 -21c-177 0 -326 139 -316 350c13 179 149 367 361 367c35 0 70 -4 105 -13c86 -25 168 -86 204 -155c60 -117 31 -285 -67 -370
c-31 -28 -83 -51 -133 -51c-27 0 -49 4 -73 21c-21 -13 -45 -19 -71 -19c-106 0 -177 84 -177 193c0 125 86 243 194 243c36 0 68 -10 105 -40zM558 495l-47 -256c79 35 93 173 56 238zM344 244c16 0 34 5 45 16l32 147c-98 104 -179 -70 -117 -147c11 -12 25 -16 40 -16z
" />
    <glyph glyph-name="acute" unicode="&#xb4;" horiz-adv-x="386" 
d="M386 922l-131 -166h-155l100 166h186z" />
    <glyph glyph-name="breve" unicode="&#x2d8;" horiz-adv-x="450" 
d="M265 922h135c0 -232 -350 -232 -350 0h137c0 -51 78 -51 78 0z" />
    <glyph glyph-name="caron" unicode="&#x2c7;" horiz-adv-x="441" 
d="M14 924h168l41 -52l46 52h167l-150 -168h-122z" />
    <glyph glyph-name="cedilla" unicode="&#xb8;" horiz-adv-x="385" 
d="M293 40l-32 -71c134 -35 80 -223 -65 -223c-44 0 -96 10 -146 51l32 86c44 -30 101 -46 111 -9c7 23 -24 48 -76 52l51 114h125z" />
    <glyph glyph-name="circumflex" unicode="&#x2c6;" horiz-adv-x="501" 
d="M311 924l150 -168h-162l-46 52l-44 -52h-169l154 168h117z" />
    <glyph glyph-name="dieresis" unicode="&#xa8;" horiz-adv-x="510" 
d="M50 834c0 48 37 85 84 85s84 -37 84 -85c0 -46 -37 -83 -84 -83s-84 37 -84 83zM291 834c0 48 35 85 84 85c48 0 85 -37 85 -85c0 -46 -37 -83 -85 -83c-49 0 -84 37 -84 83z" />
    <glyph glyph-name="dotaccent" unicode="&#x2d9;" horiz-adv-x="296" 
d="M50 851c0 54 43 97 99 97s97 -43 97 -97c0 -55 -41 -98 -97 -98s-99 43 -99 98z" />
    <glyph glyph-name="grave" unicode="`" horiz-adv-x="406" 
d="M306 756h-155l-131 166h186z" />
    <glyph glyph-name="hungarumlaut" unicode="&#x2dd;" horiz-adv-x="534" 
d="M302 914l-111 -158h-141l75 158h177zM534 914l-117 -158h-140l74 158h183z" />
    <glyph glyph-name="macron" unicode="&#xaf;" horiz-adv-x="397" 
d="M50 758v134h297v-134h-297z" />
    <glyph glyph-name="ogonek" unicode="&#x2db;" horiz-adv-x="380" 
d="M276 11l5 -11c-59 -58 -62 -112 -19 -111c11 0 24 4 40 14l28 -107c-34 -28 -80 -40 -115 -40c-140 0 -177 123 -60 255h121z" />
    <glyph glyph-name="ring" unicode="&#x2da;" horiz-adv-x="359" 
d="M48 871c0 71 60 126 133 126s130 -61 130 -127c0 -68 -59 -124 -130 -124c-73 0 -133 53 -133 125zM217 869c0 21 -16 40 -36 40c-24 0 -38 -19 -38 -40c0 -15 14 -35 38 -35c20 0 36 13 36 35z" />
    <glyph glyph-name="tilde" unicode="&#x2dc;" horiz-adv-x="465" 
d="M137 745l-87 49c15 80 59 120 127 118c59 -1 115 -79 147 -4l91 -52c-19 -74 -55 -114 -104 -113c-80 0 -134 80 -174 2z" />
    <glyph glyph-name="uni0326" unicode="&#x326;" horiz-adv-x="0" 
d="M401 -50l-75 -204h-163l61 204h177z" />
    <glyph glyph-name="uni02C9" unicode="&#x2c9;" horiz-adv-x="330" 
d="M50 758v134h297v-134h-297z" />
    </font>
</defs>
</svg>
